<?xml version="1.0" standalone="no"?>
<!DOCTYPE svg PUBLIC "-//W3C//DTD SVG 1.1//EN" "http://www.w3.org/Graphics/SVG/1.1/DTD/svg11.dtd" >
<svg xmlns="http://www.w3.org/2000/svg">
<metadata></metadata>
<defs>
<font id="junctionlight" horiz-adv-x="1208" >
<font-face units-per-em="2048" ascent="1536" descent="-512" />
<missing-glyph horiz-adv-x="532" />
<glyph unicode="ff" horiz-adv-x="1306" d="M901 1331v-205h344v-106h-344v-1020h-113v1020h-464v-1020h-113v1020h-150v106h150v205q0 167 71 263t228 96q118 0 330 -119q92 119 245 119q83 0 176 -39t154 -78l-74 -74q-18 9 -47 23t-97.5 37.5t-111.5 23.5q-36 0 -64 -7t-47 -17.5t-32.5 -30t-21 -38t-12 -47.5 t-5.5 -52.5t-2 -59.5zM324 1331v-205h464v205q0 71 15 144q-15 10 -52.5 31t-112.5 49t-128 28q-50 0 -85 -13.5t-54 -33t-29.5 -56.5t-13.5 -67t-4 -82z" />
<glyph unicode="fi" horiz-adv-x="1159" d="M338 1331v-205h659v-1126h-112v1020h-547v-1020h-113v1020h-149v106h149v205q0 164 77.5 261.5t236.5 97.5q79 0 175.5 -36t151.5 -69t99 -65l-74 -72q-26 15 -67 37.5t-135 60t-148 37.5q-62 0 -102.5 -18.5t-61.5 -55t-29 -77.5t-10 -101z" />
<glyph unicode="fl" horiz-adv-x="1234" d="M905 1679h113v-1390q0 -119 35 -156q45 -42 127 -51q-1 -20 -1 -54t-1 -53q-145 4 -207 66q-30 30 -46 79.5t-18 82t-2 86.5v1390zM338 1331v-205h344v-106h-344v-1020h-113v1020h-151v106h151v205q0 359 297 359q98 0 230 -64v-115q-152 72 -230 72q-36 0 -64 -7 t-47 -17.5t-32.5 -30t-21 -38t-12 -47.5t-5.5 -52.5t-2 -59.5z" />
<glyph unicode="ffi" horiz-adv-x="1714" d="M909 1352v-226h660v-1126h-113v1020h-547v-1020h-112v1020h-463v-1020h-113v1020h-151v106h151v226q0 358 297 358q128 0 336 -123q96 123 256 123q61 0 129.5 -19.5t128 -50.5t97.5 -54.5t69 -45.5l-72 -72q-26 15 -67 37.5t-135 60.5t-148 38q-62 0 -103 -18.5t-62 -55 t-29 -78t-9 -100.5zM334 1352v-226h463v226q0 78 16 143q-7 4 -19.5 11.5t-49 26.5t-71 33t-78 26t-77.5 12q-36 0 -64 -7t-47 -17.5t-32.5 -30t-21 -38t-12 -47.5t-5.5 -52.5t-2 -59.5z" />
<glyph unicode="ffl" horiz-adv-x="1789" d="M1475 1700h112v-1411q0 -36 1 -57t10 -51.5t26 -47.5q45 -42 125 -51q-1 -20 -1 -54t-1 -53q-146 5 -205 66q-24 23 -39 53.5t-20.5 69t-6.5 61.5t-1 64v1411zM907 1352v-226h344v-106h-344v-1020h-112v1020h-463v-1020h-113v1020h-151v106h151v226q0 358 297 358 q124 0 330 -119q92 119 248 119q95 0 229 -63v-115q-151 72 -229 72q-50 0 -85 -13.5t-54.5 -33.5t-30 -55.5t-13.5 -67.5t-4 -82zM332 1352v-226h463v226q0 78 16 143l-12 7q-12 7 -29 16.5t-40 21t-49.5 22.5t-54 21t-56.5 15.5t-54 5.5q-36 0 -64 -7t-47 -17.5t-32.5 -30 t-21 -38t-12 -47.5t-5.5 -52.5t-2 -59.5z" />
<glyph unicode="fj" horiz-adv-x="1159" d="M338 1352v-226h659v-1239q0 -169 -70.5 -291.5t-166.5 -168.5l-39 122q67 30 115.5 126.5t48.5 211.5v1133h-547v-1020h-113v1020h-149v106h149v226q0 164 77.5 261t236.5 97q79 0 175.5 -36t151.5 -69t99 -65l-74 -72q-26 15 -67 37.5t-135 60.5t-148 38 q-62 0 -102.5 -18.5t-61.5 -55t-29 -77.5t-10 -101z" />
<glyph unicode=" "  horiz-adv-x="532" />
<glyph unicode="&#x09;" horiz-adv-x="532" />
<glyph unicode="&#xa0;" horiz-adv-x="532" />
<glyph unicode="!" horiz-adv-x="569" d="M334 387h-92l-27 1294h145zM190 96q0 46 29 77.5t72 31.5q41 0 68.5 -31.5t27.5 -77.5q0 -47 -27.5 -78.5t-68.5 -31.5q-43 0 -72 31.5t-29 78.5z" />
<glyph unicode="&#x22;" horiz-adv-x="741" d="M465 1481q0 40 24.5 67t61.5 27q48 0 72 -42t24 -110q-1 -72 -31.5 -135.5t-93.5 -148.5q-7 4 -22.5 11.5t-22.5 12.5q7 9 27.5 34.5t26.5 34t20 30t19.5 36t12.5 37.5t11 49q-58 0 -93.5 27.5t-35.5 69.5zM104 1481q0 39 25 66.5t61 27.5q49 0 73 -42.5t24 -109.5 q-1 -73 -31 -136.5t-92 -147.5l-24 12t-23 12q9 11 27.5 34.5t26.5 33.5t21 30.5t19.5 36t13.5 38t11 48.5q-58 0 -95 27.5t-37 69.5z" />
<glyph unicode="#" horiz-adv-x="1656" d="M207 1026l29 109h358q59 241 111 442h90l-109 -442h434q19 84 60.5 248t48.5 194h92l-111 -442h377q-4 -22 -13 -55.5t-13 -53.5h-377l-101 -414h390q-5 -21 -15 -55t-14 -55h-389q-21 -93 -65.5 -270.5t-57.5 -231.5h-90l123 502h-435q-19 -81 -62 -251t-62 -251h-91 l123 502h-346q4 24 13.5 57.5t13.5 52.5h348l100 414h-360zM657 1026l-100 -414h434l103 414h-437z" />
<glyph unicode="$" horiz-adv-x="1236" d="M602 -141v108q-163 19 -276.5 87.5t-200.5 203.5q26 26 88 76q69 -105 161 -163t228 -81v672q-54 18 -95 33.5t-87 37.5t-79.5 45.5t-65.5 55.5t-51.5 67.5t-31 82t-10.5 100.5q2 95 31.5 169.5t72.5 119.5t101.5 76t109.5 43.5t105 17.5v119h80v-121q215 -25 352 -174 l-88 -76q-98 94 -264 125v-602q80 -26 138.5 -50.5t123 -65t105.5 -87.5t67.5 -116t26.5 -152q0 -101 -37 -183.5t-101 -136.5t-146 -85.5t-177 -39.5v-106h-80zM1024 410q0 51 -18 94.5t-47.5 75.5t-75.5 61.5t-92.5 50.5t-108.5 43v-647q151 18 246.5 101t95.5 221z M301 1184q-4 -95 76 -160t225 -115v576q-42 -5 -79.5 -16t-78.5 -34t-70.5 -55t-50 -82.5t-22.5 -113.5z" />
<glyph unicode="%" horiz-adv-x="2021" d="M127 1178q1 94 23.5 167.5t58 119t84.5 75.5t98 42t103 13q55 0 104.5 -11.5t99 -42t85 -76.5t57.5 -121t22 -170q-1 -94 -23 -167.5t-58 -119.5t-84.5 -75.5t-97.5 -41.5t-103 -12t-103.5 12t-99 42.5t-85.5 76.5t-58.5 120.5t-22.5 168.5zM1546 1669h137 q-202 -300 -596 -883.5t-595 -883.5h-138q201 300 596 883.5t596 883.5zM494 1499q-42 -1 -76 -8.5t-67.5 -29t-56 -56t-36.5 -92.5t-14 -135q0 -96 20.5 -163t58 -100.5t79 -47t94.5 -13.5q42 0 75.5 7.5t67 28.5t55.5 55.5t36 92.5t15 136q0 98 -20 165t-57.5 100.5 t-78.5 46.5t-95 13zM1188 389q1 94 23 167.5t57.5 119.5t84 76t97 42t102.5 13q55 0 105.5 -12t99.5 -42t84.5 -76.5t57.5 -121.5t22 -170q-1 -94 -23 -167.5t-57.5 -119.5t-84.5 -75.5t-98.5 -41.5t-103.5 -12q-53 0 -102.5 12t-98.5 42.5t-85 76.5t-58 120.5t-22 168.5z M1552 711q-53 -1 -93.5 -14.5t-78 -47t-57.5 -99t-20 -161.5t20.5 -162.5t58 -100t79 -47t93.5 -13.5q42 0 76 7t67.5 28t56.5 55.5t37 92.5t15 136q0 79 -14 138t-37 94.5t-57 57t-68.5 29t-77.5 7.5z" />
<glyph unicode="&#x26;" horiz-adv-x="1781" d="M129 399q0 78 29 146t86 125t118.5 100.5t147.5 91.5q-112 124 -168.5 215.5t-56.5 175.5q0 88 36.5 153.5t98 101.5t131 52.5t147.5 16.5q79 0 147.5 -16.5t128.5 -52.5t95 -101.5t35 -153.5q0 -50 -23.5 -97.5t-59 -85.5t-94 -78.5t-112.5 -71t-129 -68.5 q169 -190 436 -465q73 120 189 361q20 -9 46 -23t40 -20q-143 -289 -205 -392q81 -79 149 -133.5t93 -64.5q52 -25 93 -1.5t83 105.5q17 -9 40 -24t33 -21q-31 -65 -64.5 -107.5t-62 -57t-58 -20.5t-50.5 1q-38 5 -124.5 65.5t-197.5 163.5q-203 -233 -501 -233 q-64 0 -129.5 13.5t-132.5 45t-118 77.5t-83.5 118t-32.5 159zM584 791q-164 -83 -244 -181.5t-80 -226.5q0 -57 28 -106t70.5 -80t93.5 -53.5t95 -32t78 -9.5q233 2 426 195q-165 163 -394 412zM991 1253q0 65 -25.5 113t-69 73.5t-92.5 37.5t-106 12q-56 0 -106.5 -12 t-95.5 -37.5t-72 -73.5t-27 -113q0 -56 57.5 -137.5t166.5 -195.5q67 33 113.5 58.5t99 60.5t84 66t52.5 69.5t21 78.5z" />
<glyph unicode="'" horiz-adv-x="391" d="M106 1483q0 39 25.5 66.5t61.5 27.5q49 0 73.5 -42.5t24.5 -109.5q-1 -72 -31.5 -135.5t-93.5 -148.5q-9 5 -24.5 12.5t-22.5 11.5q9 11 27.5 34.5t26.5 33.5t21 30.5t19.5 36t13.5 38t11 48.5q-58 0 -95 27.5t-37 69.5z" />
<glyph unicode="(" horiz-adv-x="659" d="M584 1573l10 -111q-69 -28 -125 -91.5t-92 -148t-62 -178.5t-39.5 -194.5t-19.5 -181.5t-6 -154q0 -85 9.5 -184.5t34 -221t61.5 -225t99 -191t138 -124.5l-8 -111q-73 16 -136.5 67.5t-108 124t-80.5 165t-58.5 186t-37 191t-20.5 177t-6 146.5q0 78 9 174t28 212.5 t54.5 226t82.5 204.5t118 160.5t155 81.5z" />
<glyph unicode=")" horiz-adv-x="659" d="M76 1462l8 111q101 -19 182 -109t129 -209.5t80.5 -264t44.5 -262.5t12 -214q0 -98 -11.5 -215t-43.5 -260t-80 -261.5t-129.5 -208.5t-183.5 -112q-2 22 -4 56t-4 55q77 37 139 124.5t99 191t62 225t34.5 221t9.5 184.5t-9.5 184.5t-34.5 221t-62 225.5t-99 191.5 t-139 125.5z" />
<glyph unicode="*" horiz-adv-x="1232" d="M115 1182l35 94l438 -174q0 72 -2 236.5t-2 238.5h84l-4 -475q72 30 238.5 95.5t195.5 76.5l39 -94l-443 -172q138 -152 305 -342q-18 -14 -75 -66l-299 367l-297 -369q-8 7 -36.5 31.5t-45.5 36.5l307 342z" />
<glyph unicode="+" horiz-adv-x="1298" d="M686 0h-78v508h-497v100h497v506h78v-506h518v-100h-518v-508z" />
<glyph unicode="," horiz-adv-x="380" d="M96 82q0 41 25 67.5t61 26.5q49 0 73 -42t24 -109q-3 -144 -123 -306q-44 24 -47 27q53 66 80 116.5t38 123.5q-58 0 -94.5 27t-36.5 69z" />
<glyph unicode="-" horiz-adv-x="675" d="M559 610v-106h-432v106h432z" />
<glyph unicode="." horiz-adv-x="391" d="M106 90q0 42 27.5 70t67.5 28q38 0 64 -28t26 -70q0 -45 -25.5 -74.5t-64.5 -29.5q-40 0 -67.5 29.5t-27.5 74.5z" />
<glyph unicode="/" horiz-adv-x="692" d="M532 1577h111l-473 -1577h-111z" />
<glyph unicode="0" horiz-adv-x="1357" d="M129 776q0 179 31 319.5t83.5 230.5t126 149t153.5 83.5t171 24.5q92 0 171 -24.5t152 -83.5t124 -149.5t81.5 -230.5t30.5 -319t-30.5 -319.5t-81.5 -231t-124 -150t-152 -84t-171 -24.5q-91 0 -171 24.5t-153.5 84t-126 150t-83.5 231t-31 319.5zM1130 776 q0 179 -32.5 313t-91.5 214.5t-137 119.5t-175 39q-75 0 -139.5 -24t-120.5 -77t-95.5 -132t-62 -194.5t-22.5 -258.5t23.5 -258t64.5 -192.5t97.5 -129.5t120 -75t134.5 -23q92 0 168.5 38t137.5 116.5t95.5 212t34.5 311.5z" />
<glyph unicode="1" horiz-adv-x="714" d="M545 0h-125v1434q-159 -135 -219 -185l-80 92q30 23 89 66.5t103 77t86 67.5h146v-1552z" />
<glyph unicode="2" horiz-adv-x="1069" d="M526 1462q-60 -1 -113.5 -20t-93 -51t-64 -58.5t-44.5 -56.5l-74 72q26 42 59 78.5t80.5 74t112.5 59.5t139 23q176 0 288 -100t112 -275q0 -71 -46.5 -181.5t-111 -218t-162.5 -246t-170.5 -232.5t-165.5 -211h697v-119h-858v109q15 17 40 46.5t98.5 119t140 176 t147.5 201t139.5 211t98.5 189.5t40 152q0 121 -87.5 190.5t-201.5 67.5zM190 1239l52 6l-31 31z" />
<glyph unicode="3" horiz-adv-x="1083" d="M188 1333l-61 58q6 8 16.5 21t46 46t72.5 58t92.5 46t110.5 21q133 0 229.5 -88.5t96.5 -222.5q0 -151 -213 -320q164 -22 278.5 -128.5t118.5 -256.5q0 -119 -37 -220t-97 -169.5t-136.5 -117.5t-154 -71t-151.5 -22q-156 -2 -313 109l76 76q13 -7 35.5 -16.5t85 -25.5 t116.5 -14q58 0 120 17t124 55t111 91t79.5 133.5t30.5 174.5q0 108 -87 193.5t-202 85.5q-137 0 -268 -41v100q81 32 144 66t117 78.5t83 101t29 121.5q0 83 -63 134.5t-150 51.5q-183 0 -279 -125zM274 793l33 -21v33l-18 -6z" />
<glyph unicode="4" horiz-adv-x="1243" d="M1200 510v-119h-223v-391h-125v391h-774v74l821 1087h78v-1042h223zM324 510h528v825l-567 -768l-78 -75z" />
<glyph unicode="5" horiz-adv-x="1191" d="M319 1434v-476q77 35 138.5 53.5t130.5 18.5q232 0 359.5 -127t127.5 -330q0 -157 -38 -275.5t-107.5 -189.5t-160.5 -106t-204 -35q-78 0 -150.5 19t-124.5 49t-82 52t-50 42q13 16 34.5 45.5t32.5 42.5q7 -5 19.5 -14.5t51.5 -32.5t77.5 -41t91.5 -32.5t100 -14.5 q85 0 156.5 28.5t127 85.5t87 152.5t31.5 220.5q0 61 -23.5 121t-68.5 112t-120 84t-167 32q-176 0 -293 -76h-98v710h757v-118h-635z" />
<glyph unicode="6" horiz-adv-x="1216" d="M696 938q87 0 158.5 -24.5t130 -76t91 -142t32.5 -212.5q0 -61 -14 -127t-48.5 -136.5t-85 -126t-132.5 -91t-183 -35.5q-242 0 -374 193.5t-132 550.5q0 174 43 334t117.5 278.5t181.5 189t228 70.5q165 0 327 -119q-12 -14 -25 -27t-29 -28t-24 -23q-15 8 -39.5 20 t-88.5 32t-113 20q-101 0 -183.5 -60.5t-134.5 -154.5t-88 -215t-51.5 -233.5t-17.5 -219.5q233 363 454 363zM645 80q76 0 138 28t100.5 71.5t64.5 98.5t36.5 106.5t10.5 98.5q0 93 -23.5 160.5t-66.5 106t-94.5 56t-114.5 17.5q-53 0 -105 -17t-108.5 -56.5t-113 -113.5 t-105.5 -177q35 -182 134 -280.5t247 -98.5z" />
<glyph unicode="7" horiz-adv-x="1007" d="M104 1417v135h854v-100q-74 -156 -179.5 -361.5t-235.5 -445t-249 -422.5t-183 -227l-86 80q71 54 226 305.5t303.5 528t260.5 507.5h-711z" />
<glyph unicode="8" horiz-adv-x="1163" d="M1004 1255q0 -74 -34 -146t-90.5 -130.5t-107.5 -99t-106 -74.5q82 -58 141.5 -107t117 -110t87.5 -126.5t30 -133.5q0 -75 -23 -135t-56.5 -97t-83 -64t-89 -39t-88.5 -18.5t-68.5 -7t-40.5 -0.5h-3h-2q-19 0 -38 0.5t-67 7.5t-88.5 19t-89.5 39t-83 63.5t-57.5 96.5 t-23.5 135q1 75 33.5 149.5t84.5 135t106.5 107.5t113.5 83q-139 114 -218 223.5t-79 228.5q0 89 36 155t96.5 102.5t129.5 53.5t146 17q78 0 148 -17t131.5 -53.5t98 -102.5t36.5 -155zM930 328q0 48 -29 100.5t-86.5 109t-116 104t-143.5 110.5q-119 -75 -207 -184.5 t-98 -239.5q0 -54 19 -96.5t44.5 -68.5t65.5 -45t68.5 -27t68 -12.5t49 -4.5h25.5h2q16 0 31.5 0.5t52 5t66 13t66.5 27.5t62 45t42.5 68t17.5 95zM565 879l35 -2q39 20 82 51.5t93 79.5t82 113.5t32 133.5q0 66 -26 113.5t-71 72t-94.5 35.5t-107.5 11q-45 0 -84.5 -6.5 t-79.5 -22.5t-68.5 -41.5t-46.5 -67t-18 -94.5q0 -51 21 -100.5t63 -98.5t83.5 -87t104.5 -90z" />
<glyph unicode="9" horiz-adv-x="1216" d="M543 614q-87 0 -158.5 24.5t-130 76t-91 142t-32.5 212.5q0 61 14 126t48.5 135.5t85 126t132.5 91t183 35.5q242 0 374 -192.5t132 -548.5q0 -174 -43 -334t-117.5 -279.5t-181.5 -190.5t-228 -71q-163 0 -327 121q15 15 41 40t39 38q14 -8 38 -20t87.5 -32t113.5 -20 q101 0 183.5 60.5t134.5 154t88 214.5t51.5 233t17.5 219q-232 -361 -454 -361zM594 1470q-76 0 -137.5 -28t-100 -71t-65 -98t-37 -106t-10.5 -98q0 -93 24 -161t67 -106t94.5 -55.5t113.5 -17.5q54 0 106 17t109 56t113 113t104 177q-35 183 -133.5 280.5t-247.5 97.5z " />
<glyph unicode=":" horiz-adv-x="493" d="M160 90q0 43 26.5 70.5t67.5 27.5q37 0 62.5 -28t25.5 -70q0 -45 -25.5 -74.5t-62.5 -29.5q-41 0 -67.5 29t-26.5 75zM160 848q0 42 26.5 70t67.5 28q37 0 62.5 -28.5t25.5 -69.5q0 -46 -25.5 -76.5t-62.5 -30.5q-41 0 -67.5 30.5t-26.5 76.5z" />
<glyph unicode=";" horiz-adv-x="503" d="M170 82q0 41 24.5 67.5t61.5 26.5q48 0 72 -42t24 -109q-1 -77 -35 -163.5t-90 -162.5q-38 21 -45 27q96 120 117 260q-58 0 -93.5 27t-35.5 69zM160 848q0 42 26.5 70t67.5 28q37 0 62.5 -28.5t25.5 -69.5q0 -46 -25.5 -76.5t-62.5 -30.5q-41 0 -67.5 30.5t-26.5 76.5z " />
<glyph unicode="&#x3c;" horiz-adv-x="1400" d="M164 502v131q173 78 539 244.5t565 255.5v-103l-1024 -463l1024 -463v-102q-171 77 -535 243t-569 257z" />
<glyph unicode="=" horiz-adv-x="1320" d="M1217 788v-98h-1096v98h1096zM1217 453v-101h-1096v101h1096z" />
<glyph unicode="&#x3e;" horiz-adv-x="1400" d="M1257 633v-131q-199 -89 -564 -255.5t-539 -244.5v102l1022 463q-176 78 -524.5 237t-497.5 226v103q131 -59 508.5 -231t594.5 -269z" />
<glyph unicode="?" horiz-adv-x="999" d="M815 1325q0 252 -291 252q-68 0 -129.5 -25.5t-107.5 -67t-72.5 -73t-48.5 -65.5l-68 65q7 11 21 29t58.5 64.5t91.5 82.5t117 65t138 29q99 0 175 -25t118.5 -62.5t69 -88t35 -93.5t8.5 -87q0 -46 -11 -91.5t-24.5 -80.5t-43 -77t-48.5 -66.5t-61 -65.5t-60 -57.5 t-64 -57.5q-88 -80 -134 -135t-46 -98q0 -46 25.5 -83.5t79.5 -86.5q-68 -56 -82 -66q-121 117 -121 238q0 87 51 158.5t158 169.5q56 51 95 90.5t81 92.5t65 107.5t25 108.5zM418 82q0 41 25 67.5t61 26.5q37 0 60.5 -26.5t23.5 -67.5t-23.5 -68.5t-60.5 -27.5 q-36 0 -61 27.5t-25 68.5z" />
<glyph unicode="@" horiz-adv-x="2142" d="M854 41q-129 1 -190.5 99.5t-61.5 271.5q0 130 35.5 252t94 212.5t130.5 159.5t147 104.5t142 35.5q52 0 97 -15.5t104 -67.5t118 -141q16 79 39 170q23 -5 56 -10.5t49 -9.5q-211 -941 -211 -957q6 0 38 -2t83 16t109.5 39.5t117 69t104.5 104.5t73 146t22 193 q0 106 -34 211t-103 200t-164.5 168.5t-228.5 116.5t-285 43q-176 0 -345 -78t-293 -205t-200 -296t-76 -343t75.5 -327.5t201 -260t292 -168t345.5 -61.5q174 0 329.5 53.5t345.5 202.5l72 -90q-120 -97 -218.5 -157t-190 -88.5t-163 -37t-175.5 -8.5q-201 0 -387 71.5 t-325 195t-222.5 300t-83.5 375.5q0 161 53.5 318t150 287.5t222 231t279.5 156.5t313 56q172 0 321.5 -50t257.5 -134.5t186 -196t116 -235.5t38 -250q0 -114 -28 -211.5t-73.5 -164.5t-105.5 -120.5t-121 -85t-124.5 -52.5t-110.5 -28.5t-84 -7.5q-104 0 -104 102 q0 11 20 138q-272 -245 -469 -240zM707 412q0 -269 147 -275q59 -1 121 19t115 55t98 71.5t84 80t59.5 68t36.5 46.5l80 359q-34 79 -71 131t-76.5 75t-72.5 31t-77 8q-54 0 -114.5 -30.5t-119 -90.5t-105.5 -139.5t-76 -186.5t-29 -222z" />
<glyph unicode="A" horiz-adv-x="1421" d="M647 1577h148l579 -1577h-131l-205 551h-637q-105 -290 -204 -551h-131zM717 1444q-33 -128 -275 -776h553q-105 281 -174.5 475t-86.5 247z" />
<glyph unicode="B" horiz-adv-x="1271" d="M606 1587q106 0 187 -22.5t145 -72t101.5 -134.5t45.5 -205q-3 -113 -52 -200t-130 -136q75 -33 128.5 -81t79 -99.5t36 -95t10.5 -84.5q0 -30 -0.5 -48.5t-5.5 -58t-13.5 -67.5t-26.5 -67.5t-43.5 -67.5t-66 -58.5t-91 -49t-121.5 -30t-156 -10.5h-449v1552l60 9 q208 26 362 26zM307 737v-620h326q83 0 148 13t107 32t72 50.5t44.5 58t22.5 66t9.5 62.5t1.5 58q0 29 -6.5 59t-30 71.5t-62.5 73t-111.5 54t-168.5 22.5h-352zM969 1157q-1 83 -22 142.5t-60.5 93.5t-86 51.5t-108.5 23.5q-77 5 -90 5q-118 0 -295 -27v-590h185 q64 0 109.5 2t98 9t88 19.5t71 35t57.5 54t36 77t17 104.5z" />
<glyph unicode="C" horiz-adv-x="1286" d="M1188 1411l-82 -80q-6 6 -18 15.5t-49.5 34.5t-76.5 44t-96 34.5t-112 15.5q-94 0 -181.5 -46.5t-158.5 -135t-113.5 -231.5t-42.5 -321t68 -327t181.5 -234t246.5 -88q250 -6 417 168l76 -74q-42 -42 -83 -74t-103 -67t-143.5 -55t-174.5 -21q-172 9 -311.5 109.5 t-220 274.5t-80.5 388q0 206 52.5 374t140.5 274t199.5 162.5t232.5 56.5q79 0 149.5 -17t115 -39.5t83 -54t55 -50t29.5 -36.5z" />
<glyph unicode="D" horiz-adv-x="1429" d="M184 0v1554q267 33 404 33q86 0 158.5 -8.5t149 -31.5t136.5 -61t115 -100.5t91 -145.5t57.5 -200.5t21.5 -261.5q0 -365 -172.5 -571.5t-456.5 -206.5h-504zM1196 778q0 129 -17 230.5t-59 190.5t-110 148t-173 92.5t-245 33.5q-50 0 -164 -12.5t-123 -12.5v-1331h383 q223 0 365.5 179t142.5 482z" />
<glyph unicode="E" horiz-adv-x="1118" d="M1040 0h-854v1577h637q78 0 189 6v-121h-705v-585h600v-117h-600v-643h545q40 0 188 8v-125z" />
<glyph unicode="F" horiz-adv-x="1073" d="M307 0h-121v1577h637q78 0 189 6v-119h-705v-587h600v-117h-600v-760z" />
<glyph unicode="G" horiz-adv-x="1503" d="M1337 754v-465q0 -87 -71 -161t-179.5 -115.5t-224.5 -43.5q-123 0 -227 26.5t-178 71.5t-132 108t-93.5 132t-59 148.5t-32.5 151.5t-9 147q0 133 24 248.5t65.5 201.5t98.5 155t121 115t135.5 76.5t140 44t136.5 13.5q73 0 143.5 -19t120 -44t95.5 -59.5t69 -57 t41 -44.5l-84 -81q-7 8 -21 20.5t-56 45t-84.5 57t-102 45t-113.5 20.5q-75 0 -154.5 -25t-160 -82t-143.5 -140t-102.5 -210t-39.5 -280q0 -61 7 -120.5t26 -126.5t48 -125t76 -112t107 -92t144.5 -61t185.5 -23q69 0 155 30t151 81t65 102v324h-238q-98 0 -143 16v113 q53 -6 151 -6h342z" />
<glyph unicode="H" horiz-adv-x="1486" d="M305 0h-121v1577h121v-703h897v703h121v-1577h-121v758h-897v-758z" />
<glyph unicode="I" horiz-adv-x="495" d="M311 0h-121v1577h121v-1577z" />
<glyph unicode="J" horiz-adv-x="552" d="M252 1577h123v-1634q0 -87 -21.5 -161.5t-54 -124t-78.5 -90t-86.5 -63t-85.5 -39.5q-8 19 -26 58.5t-27 64.5q51 18 95 47t81 71.5t58.5 103.5t21.5 133v1634z" />
<glyph unicode="K" horiz-adv-x="1224" d="M184 1577h123v-782l608 782h160l-590 -754q62 -7 127.5 -35t108.5 -79q45 -52 219 -336q174 -283 242 -373h-150q-10 12 -27 37t-41.5 64t-45 73t-53 87t-50.5 83q-145 238 -166 266q-93 109 -231 109q-19 0 -61 -40t-50 -61v-618h-123v1577z" />
<glyph unicode="L" horiz-adv-x="1107" d="M186 0v1577h121v-1460h545q40 0 188 8v-125h-854z" />
<glyph unicode="M" horiz-adv-x="1710" d="M305 0h-123v1577h129l520 -1368l33 -100l35 100l524 1368h127v-1577h-120v1114v172l-500 -1286h-127l-498 1286v-172v-1114z" />
<glyph unicode="N" horiz-adv-x="1449" d="M305 0h-121v1577h133l846 -1378v125v1253h123v-1577h-133l-776 1268l-72 121v-132v-1257z" />
<glyph unicode="O" horiz-adv-x="1517" d="M774 1608q66 0 128 -12t126 -39.5t118.5 -70.5t103 -108t83 -147.5t54.5 -195t20 -244.5q0 -157 -25 -284.5t-70.5 -215.5t-104.5 -152t-133 -100.5t-148.5 -53t-157.5 -16.5q-66 0 -128.5 11t-127 38.5t-119.5 69.5t-104 107t-83.5 147.5t-54.5 196t-20 247.5 q0 185 38.5 331t100.5 236t148 149.5t173 82.5t183 23zM774 1493q-61 0 -120 -15.5t-118.5 -48t-110 -88.5t-90 -131t-61.5 -182.5t-22 -236.5q0 -156 32 -280.5t83.5 -202t121 -129.5t138.5 -72.5t141 -20.5q55 0 106.5 10.5t103.5 34.5t96.5 60.5t84 93t67 127t44 166 t16.5 208.5q0 153 -30.5 276t-80.5 202t-117.5 132t-138 75t-145.5 22z" />
<glyph unicode="P" horiz-adv-x="1234" d="M307 0h-123v1577h123v-90q201 121 377 121q201 0 328 -142t127 -368q0 -289 -123 -441.5t-348 -152.5q-162 0 -361 139v-643zM1024 1098q0 174 -108 282.5t-293 108.5q-157 0 -316 -121v-586q170 -151 371 -151q159 0 252.5 119t93.5 348z" />
<glyph unicode="Q" horiz-adv-x="1517" d="M774 1608q66 0 128 -12t126 -39.5t118.5 -70.5t103 -108t83 -147.5t54.5 -195t20 -244.5q0 -169 -32 -305t-86 -226t-130 -153t-158 -94.5t-178 -43.5q23 -27 44.5 -47.5t55 -43.5t78.5 -35.5t97 -12.5q82 0 174 25q6 -17 18 -53t19 -58q-103 -27 -211 -27 q-90 1 -165.5 28.5t-124 69.5t-78 81.5t-44.5 78.5q-88 12 -165 43.5t-150 94.5t-125 152t-83.5 222.5t-31.5 298.5q0 185 38.5 331t100.5 236t148 149.5t173 82.5t183 23zM774 1493q-61 0 -120 -15.5t-118.5 -48t-110 -88.5t-90 -131t-61.5 -182.5t-22 -236.5 q0 -156 32 -280.5t83.5 -202t121 -129.5t138.5 -72.5t141 -20.5q55 0 106.5 10.5t103.5 34.5t96.5 60.5t84 93t67 127t44 166t16.5 208.5q0 153 -30.5 276t-80.5 202t-117.5 132t-138 75t-145.5 22z" />
<glyph unicode="R" horiz-adv-x="1308" d="M305 0h-121v1577h121v-90q187 118 387 121q181 0 292 -120.5t126 -322.5q-2 -90 -25 -165t-59.5 -127.5t-87 -92.5t-103.5 -63t-112 -35q52 -43 107.5 -108.5t88.5 -112t91 -131.5q58 -88 84 -125.5t75.5 -99.5t94.5 -101q-36 0 -76 -2t-72 -2q-31 26 -71 75t-69.5 91.5 t-78.5 116.5q-38 55 -51.5 74.5t-49 69t-54.5 71t-52 58t-57.5 55.5t-55.5 38.5t-61 28.5h-211v-678zM649 793q49 1 93.5 10.5t91 35.5t80 66.5t55 107.5t22.5 154q0 144 -88 231t-239 87q-182 0 -359 -119v-573h344z" />
<glyph unicode="S" horiz-adv-x="1236" d="M127 264l86 76q85 -124 192 -188.5t250 -67.5q157 0 263 88.5t106 243.5q0 60 -22.5 110t-56.5 83.5t-89.5 64t-105 49t-119.5 39.5q-58 17 -97.5 30.5t-91 35t-85.5 43.5t-70.5 54t-57.5 68t-34.5 84.5t-12.5 104.5q2 88 25 158.5t61 115.5t82 76.5t95.5 47t92 22 t80.5 6.5q261 0 414 -176q-15 -13 -29 -25t-29.5 -26t-27.5 -25q-68 66 -144 101.5t-184 35.5q-35 0 -72 -7t-81 -28t-78 -54t-58.5 -90.5t-27.5 -131.5q-2 -60 27 -110t85 -86.5t115 -62t138 -49.5q58 -19 98.5 -33t94.5 -38t90.5 -47.5t76 -59t63 -74.5t39 -92t15.5 -114 q0 -109 -40.5 -196t-109.5 -141t-156 -82t-186 -28q-178 5 -303 75t-221 220z" />
<glyph unicode="T" horiz-adv-x="1110" d="M25 1460v117h1077v-117h-484v-1460h-120v1460h-473z" />
<glyph unicode="U" horiz-adv-x="1370" d="M1204 481q0 -94 -20.5 -171t-52 -128.5t-76.5 -90.5t-89.5 -60.5t-97 -34.5t-92 -17t-80.5 -4q-42 0 -82.5 4t-93 17.5t-97.5 35.5t-90 61t-77 90.5t-52 128t-20 169.5v1096h123v-1092q0 -98 28.5 -172t70 -114.5t98 -65.5t101 -32t91.5 -7q44 0 89 8t100 33t96.5 65.5 t70 113t29.5 167.5v1096h123v-1096z" />
<glyph unicode="V" horiz-adv-x="1372" d="M766 0h-141q-76 215 -268 747.5t-296 829.5h132q25 -72 207 -595.5t296 -840.5l502 1436h133z" />
<glyph unicode="W" horiz-adv-x="1970" d="M612 0h-104q-75 265 -223.5 788.5t-223.5 788.5h127l373 -1397q32 125 367 1397h139l369 -1397q144 523 376 1397h123q-83 -302 -237 -842.5t-209 -734.5h-105q-52 185 -178 655.5t-209 763.5z" />
<glyph unicode="X" horiz-adv-x="1312" d="M1090 1577h157l-504 -791q71 -112 243 -378.5t261 -407.5h-160l-423 659l-418 -659h-162l500 786l-500 791h154l426 -664z" />
<glyph unicode="Y" horiz-adv-x="1230" d="M1065 1577h139l-518 -817v-760h-121v760l-520 817h148l434 -682z" />
<glyph unicode="Z" horiz-adv-x="1222" d="M1128 154v-134q-26 -14 -80.5 -19t-95.5 -3l-41 2h-798v147l825 1299h-805v131h950v-143l-827 -1303h659q115 -2 213 23z" />
<glyph unicode="[" horiz-adv-x="702" d="M555 1577v-84h-252v-1956h252v-84h-367v2124h367z" />
<glyph unicode="\" horiz-adv-x="712" d="M70 1577h110l473 -1577h-110z" />
<glyph unicode="]" horiz-adv-x="702" d="M158 -547v84h252v1956h-252v84h366v-2124h-366z" />
<glyph unicode="^" horiz-adv-x="1306" d="M610 1114h105l508 -1114h-107l-454 1026l-457 -1026h-105q95 212 267.5 586t242.5 528z" />
<glyph unicode="_" horiz-adv-x="1320" d="M1217 -43v-92h-1096v92h1096z" />
<glyph unicode="`" horiz-adv-x="673" d="M160 1548h135l240 -266h-74z" />
<glyph unicode="a" horiz-adv-x="1122" d="M674 1038q-54 0 -119 -16.5t-138.5 -49t-105 -48t-88.5 -45.5l-61 94q305 178 536 178q45 0 82 -12t62.5 -31.5t45.5 -47t31.5 -55.5t18.5 -59.5t9.5 -57t2.5 -50.5v-629q0 -93 105 -154q-16 -14 -40.5 -37t-39.5 -36q-102 48 -137 213q-96 -102 -205 -161t-215 -59 q-12 0 -29.5 2t-47 9t-57.5 19t-58.5 34.5t-53 52.5t-37 76.5t-14.5 103.5q0 47 8 87.5t33.5 86t67.5 80.5t114.5 64t169.5 43q280 44 324 55v150q0 20 -2 40.5t-12 51t-26.5 53t-48.5 39t-75 16.5zM162 973zM410 80q112 -7 229 67.5t199 176.5v256q-82 -17 -238 -41 l-76 -13q-91 -14 -152 -40.5t-90.5 -62.5t-40 -71t-10.5 -80q0 -46 15.5 -82.5t36.5 -56t48.5 -32t45.5 -16.5t33 -5z" />
<glyph unicode="b" horiz-adv-x="1249" d="M723 1151q107 0 191 -46.5t135 -126.5t77.5 -180.5t26.5 -215.5q0 -286 -122 -446.5t-337 -160.5q-80 0 -186 45t-211 132v-152h-113v1679h113v-757q55 96 176 162.5t250 66.5zM723 1026q-267 2 -426 -244v-489q86 -86 197.5 -142.5t199.5 -56.5q156 0 250 132.5 t94 355.5q0 116 -34 214.5t-107.5 163.5t-173.5 66z" />
<glyph unicode="c" horiz-adv-x="1011" d="M592 1151q190 0 323 -162l-69 -69q-4 5 -12 13t-34 29t-54 37.5t-71 29.5t-87 13q-62 0 -123 -32t-112.5 -91.5t-83 -157.5t-31.5 -218q0 -124 41 -228.5t120 -168.5t179 -64q135 0 284 129q16 -16 37.5 -38.5t34.5 -35.5q-103 -99 -185.5 -130.5t-170.5 -31.5 q-202 0 -328.5 162.5t-126.5 405.5q0 123 28.5 225.5t75.5 172t108 118t126 70.5t131 22z" />
<glyph unicode="d" horiz-adv-x="1280" d="M512 -16q-116 1 -207 79t-138.5 205t-47.5 277q0 285 125 445.5t340 160.5q84 0 198.5 -55.5t196.5 -145.5v729h115v-1419q0 -11 0.5 -20t6 -38t15.5 -52t33 -50.5t55 -44.5q-13 -14 -82 -78q-109 49 -141 265q-235 -261 -469 -258zM510 113q71 -5 137.5 16.5t113 52.5 t93.5 81t71 83.5t54 79.5v385q-96 96 -201 152.5t-194 56.5q-158 0 -251 -126.5t-93 -348.5q0 -175 74 -299t196 -133z" />
<glyph unicode="e" horiz-adv-x="1153" d="M121 551q0 165 57 301t165.5 217.5t248.5 81.5q83 0 151.5 -24t113 -60.5t78 -86.5t51 -96.5t28.5 -96.5t13.5 -79.5t2.5 -52.5v-61h-797q-8 -232 88 -370t279 -138q82 0 130 14q123 36 235 174q12 -11 24.5 -23.5t25 -25.5t17.5 -18q-41 -50 -83.5 -88.5t-74.5 -62.5 t-71.5 -41t-61.5 -24.5t-57 -11.5t-45 -4h-39q-93 0 -172 30t-135 83t-95 126t-58 158t-19 179zM592 1040q-127 0 -212 -90.5t-128 -240.5h666q-7 44 -20 86.5t-39.5 88t-61 79t-88 55.5t-117.5 22z" />
<glyph unicode="f" horiz-adv-x="776" d="M340 1331v-205h344v-106h-344v-1020h-113v1020h-151v106h151v205q0 359 297 359q84 0 176.5 -38.5t153.5 -78.5l-74 -74q-18 9 -47 23t-97.5 37.5t-111.5 23.5q-36 0 -64 -7t-47 -17.5t-32.5 -30t-21 -38t-12 -47.5t-5.5 -52.5t-2 -59.5z" />
<glyph unicode="g" horiz-adv-x="1226" d="M283 803q0 -74 22 -129.5t54.5 -85.5t78.5 -48t83 -23t79 -5q40 0 79 7t83 27t77 51t54.5 84t21.5 122q0 54 -21.5 99.5t-55 74.5t-76.5 49t-83.5 28.5t-78.5 8.5t-79 -8.5t-84 -28.5t-77 -49t-55.5 -74.5t-21.5 -99.5zM201 238q0 91 164 223q-195 111 -195 342 q0 72 29.5 133t75.5 101t104 68t114 40t107 12q47 0 152 -24q67 61 149.5 95t161.5 34q40 0 94 -13q-3 -19 -11 -54.5t-11 -51.5q-25 4 -72 4q-97 0 -221 -51q186 -118 186 -293q0 -91 -29.5 -162t-74 -112t-104.5 -67t-113 -35t-107 -9q-71 0 -135 14q-66 -46 -108 -99.5 t-42 -101.5q9 -8 27 -13.5t49.5 -8.5t49.5 -4t61.5 -1.5t50.5 -0.5q11 0 27 -1t20 -1q63 -3 116 -8.5t113.5 -16.5t108.5 -26.5t93.5 -41t75.5 -57.5t48.5 -77.5t18.5 -100.5q0 -95 -34.5 -176.5t-102 -145t-177.5 -99.5t-252 -36q-123 0 -233 47.5t-177 130t-67 177.5 q1 65 14.5 114.5t42.5 89t59 66.5t79 63q-125 53 -125 134zM608 -471q220 0 336.5 98t116.5 246q0 42 -19 74.5t-55 54.5t-77 37.5t-98.5 24.5t-104 13.5t-107.5 8.5h-63q-14 0 -50 1t-53 1q-51 -32 -78.5 -53.5t-57.5 -58.5t-43 -86.5t-13 -118.5q0 -65 55 -121.5 t139 -88.5t172 -32z" />
<glyph unicode="h" d="M299 0h-115v1679h115v-823q83 115 246 205t297 90q237 0 237 -342v-809h-114v809q0 103 -30 164t-93 61q-68 0 -139.5 -23.5t-124.5 -54t-114 -80t-91.5 -79t-73.5 -74.5v-723z" />
<glyph unicode="i" horiz-adv-x="526" d="M213 1126h113v-1126h-113v1126zM190 1499q0 36 23 58t57 22q32 0 54 -22t22 -58q0 -37 -22 -60.5t-54 -23.5q-34 0 -57 23t-23 61z" />
<glyph unicode="j" horiz-adv-x="421" d="M106 1126h113v-1239q0 -169 -70.5 -291.5t-166.5 -168.5l-39 122q67 30 115 126.5t48 211.5v1239zM86 1499q0 36 22 58t56 22q33 0 55.5 -22t22.5 -58q0 -37 -22.5 -60.5t-55.5 -23.5q-34 0 -56 23t-22 61z" />
<glyph unicode="k" horiz-adv-x="1103" d="M588 573q125 -144 286.5 -320.5t245.5 -252.5h-168q-46 24 -311 336l-135 153q-37 38 -62 56.5t-55 25.5q-16 3 -45.5 -14.5t-46.5 -34.5v-522h-115v1679h115v-983q76 33 256 176.5t256 253.5h125q-33 -91 -186 -229.5t-299 -228.5q73 -26 139 -95zM1120 0z" />
<glyph unicode="l" horiz-adv-x="540" d="M190 1679h113v-1390q0 -119 35 -156q45 -42 127 -51q-1 -20 -2 -54t-2 -53q-144 5 -205 66q-30 30 -46 79.5t-18 82t-2 86.5v1390z" />
<glyph unicode="m" horiz-adv-x="1828" d="M293 0h-115v1126h115v-256q253 281 473 281q108 0 165 -65t77 -214q249 279 471 279q237 0 237 -342v-809h-114v809q0 219 -123 219q-48 0 -95.5 -12t-84 -28t-77.5 -46t-65.5 -51t-59.5 -59.5t-48.5 -54.5t-42.5 -52v-725h-115v809q0 219 -125 219q-62 0 -124.5 -22.5 t-109 -51.5t-97.5 -76.5t-78.5 -78t-63.5 -74.5v-725z" />
<glyph unicode="n" d="M299 0h-115v1126h115v-256q128 122 271.5 201.5t271.5 79.5q237 0 237 -342v-809h-114v809q0 219 -123 219q-82 0 -162.5 -28.5t-154 -81t-121 -94.5t-105.5 -101v-723z" />
<glyph unicode="o" horiz-adv-x="1171" d="M121 563q0 126 27 227t72 167t107 111t129 64t142 19q74 0 141 -19.5t129 -64t107 -111t71.5 -167.5t26.5 -226q0 -157 -40 -274.5t-109 -184t-150.5 -98t-175.5 -31.5q-75 0 -142 18t-129.5 61.5t-107 109.5t-71.5 168t-27 231zM958 563q0 124 -31 220.5t-83.5 152.5 t-114.5 84.5t-131 28.5q-70 0 -132 -27t-115 -82.5t-84 -152.5t-31 -224q0 -102 20.5 -185t55.5 -138t82 -93t98 -54.5t106 -16.5q69 0 131 27t114.5 82t83.5 152.5t31 225.5z" />
<glyph unicode="p" horiz-adv-x="1245" d="M295 -553h-111v1679h111v-249q68 118 201 196.5t264 77.5q116 -1 206 -81t136.5 -208.5t46.5 -279.5q0 -286 -122 -446.5t-337 -160.5q-76 0 -193.5 57.5t-201.5 139.5v-725zM760 1032q-269 2 -465 -305v-416q93 -93 202 -158t195 -65q155 0 248.5 135t93.5 359 q0 114 -32.5 215.5t-96.5 167.5t-145 67z" />
<glyph unicode="q" horiz-adv-x="1249" d="M510 -25q-116 1 -206 81.5t-136.5 209t-46.5 279.5q0 286 122 446t337 160q80 0 185.5 -43t209.5 -129v147h115v-1679h-115v817q-92 -127 -216.5 -208.5t-248.5 -80.5zM510 88q68 -1 134 24t112.5 59.5t93.5 87.5t71.5 88t53.5 81v401q-92 88 -200 147.5t-195 59.5 q-157 0 -250.5 -133.5t-93.5 -357.5q0 -114 32.5 -217t96.5 -171t145 -69z" />
<glyph unicode="r" horiz-adv-x="864" d="M186 1126h115v-211q64 117 153 176.5t175 59.5q135 0 243 -94l-81 -84q-9 8 -24.5 20.5t-56.5 33t-73 20.5q-56 0 -111.5 -33.5t-99 -86.5t-74.5 -103t-51 -97v-727h-115v1126z" />
<glyph unicode="s" horiz-adv-x="999" d="M276 850q0 -36 15.5 -66t38 -51t60.5 -40.5t70.5 -32t80.5 -27.5q51 -15 78 -23.5t72 -26t70.5 -33.5t57 -41.5t48 -54t28.5 -68.5t12 -87q0 -80 -33 -143.5t-87.5 -102t-121.5 -58.5t-139 -20q-123 0 -237 54t-183 157q7 6 34 30t42 36q59 -82 149 -132t199 -50 t187 57.5t78 161.5q0 42 -17.5 78t-43.5 60t-67.5 46t-76 34.5t-82.5 27.5q-60 17 -101.5 32t-91 41.5t-80 56.5t-51 75t-20.5 100q0 76 26 134t63.5 90.5t87 53t88.5 27t75 6.5q206 0 330 -115l-76 -73q-50 47 -108.5 70.5t-145.5 23.5q-33 0 -67.5 -8.5t-73 -28.5t-63 -64 t-24.5 -106z" />
<glyph unicode="t" horiz-adv-x="786" d="M102 1024v106h150v406h115v-406h280v-106h-280v-705q0 -26 0.5 -41t3 -42.5t7.5 -44.5t15.5 -39t25 -34t37.5 -21t52 -9q99 0 178 70q11 -11 24.5 -25t23.5 -24t22 -21q-125 -113 -293 -113q-112 0 -161.5 89t-49.5 255v705h-150z" />
<glyph unicode="u" d="M391 94q79 0 159 30t154.5 85.5t121 98t106.5 104.5v714h117v-1126h-117v244q-108 -113 -260 -191t-281 -78q-237 0 -237 342v809h114v-809q0 -223 123 -223z" />
<glyph unicode="v" horiz-adv-x="1040" d="M47 1126h141q53 -158 338 -995q71 317 178 592t177 403h125q-67 -119 -134 -279t-115 -303t-87 -269t-58 -201l-20 -74h-117q-43 113 -193.5 510t-234.5 616z" />
<glyph unicode="w" horiz-adv-x="1562" d="M504 0h-117l-326 1126h125l267 -987l276 987h115l280 -987q250 922 287 987h113q-25 -25 -110 -306.5t-158 -550.5l-72 -269h-111l-287 991q-102 -368 -282 -991z" />
<glyph unicode="x" horiz-adv-x="1163" d="M137 1126h156l311 -452q75 111 189 267.5t141 184.5h145q-106 -118 -409 -548l409 -578h-157l-322 483q-103 -153 -215.5 -309t-132.5 -174h-148q73 84 219 281t212 294q-305 422 -398 551z" />
<glyph unicode="y" horiz-adv-x="1021" d="M53 1126h121l342 -882q337 827 383 882h131q-44 -58 -144.5 -289t-387.5 -933q-33 -84 -55.5 -135t-63.5 -118t-88 -112q-113 -108 -258 -121l-29 113q81 9 126 32.5t83 61.5h-2q47 45 85.5 108.5t94.5 200.5l62 152z" />
<glyph unicode="z" horiz-adv-x="1028" d="M956 123v-103q-12 -14 -42.5 -19t-55.5 -3l-24 2h-723v125l677 895h-677v106h811v-122l-678 -895h594q67 -2 118 14z" />
<glyph unicode="{" horiz-adv-x="929" d="M573 1704q104 0 211 -55q-9 -26 -45 -105q-90 25 -166 25q-25 0 -42 -17t-25 -45t-11 -52.5t-3 -49.5v-629q0 -5 -2 -16t-11 -35t-23.5 -48t-45 -53.5t-70.5 -52.5q42 -23 73 -52t45.5 -52t23 -47.5t9.5 -34t1 -16.5v-629q0 -25 3 -49.5t11 -52.5t25 -45t42 -17 q101 0 166 25q6 -15 21.5 -49.5t23.5 -55.5q-115 -55 -211 -55q-47 0 -83.5 22t-57 53.5t-33 74.5t-16.5 78.5t-4 70.5v627q0 7 -0.5 18t-11 39.5t-29.5 51t-61 42.5t-101 23v63q57 0 99 18t61 43.5t30 51t12 43.5l1 18v627q0 45 7.5 90t26.5 95.5t60.5 82t99.5 31.5z" />
<glyph unicode="|" horiz-adv-x="471" d="M287 -547h-97v2251h97v-2251z" />
<glyph unicode="}" horiz-adv-x="929" d="M369 1569q-101 0 -166 -25q-7 19 -22.5 51.5t-22.5 53.5q117 55 211 55q58 0 99.5 -31.5t60.5 -82t26.5 -95.5t7.5 -90v-627q0 -7 0.5 -18t10.5 -39.5t29 -51t61.5 -42.5t101.5 -23v-63q-58 -3 -99.5 -21.5t-60.5 -39t-30 -49t-12 -40t-1 -22.5v-629q0 -35 -4 -70.5 t-16.5 -78.5t-33 -74.5t-57 -53.5t-83.5 -22q-109 0 -211 55q7 21 23 54.5t22 50.5q90 -25 166 -25q24 0 41.5 17.5t25.5 44.5t11.5 52.5t3.5 49.5v627q0 5 1 13.5t9.5 33.5t22.5 48.5t44.5 54t71.5 54.5q-41 23 -71.5 52.5t-44.5 52.5t-22.5 48t-9.5 35t-1 17v629 q0 24 -3.5 49.5t-11.5 52.5t-25.5 44.5t-41.5 17.5z" />
<glyph unicode="~" horiz-adv-x="1302" d="M174 637l-47 74q13 9 37 22t93.5 37.5t133.5 30.5q81 10 256 -37q199 -45 287 -35q119 15 217 62l43 -78q-13 -8 -36 -20.5t-89.5 -35.5t-126.5 -28q-95 -11 -299 37h2q-150 40 -246 32q-134 -14 -225 -61z" />
<glyph unicode="&#xa1;" horiz-adv-x="569" d="M244 743h92l26 -1294h-145zM387 1034q0 -46 -28.5 -76t-71.5 -30q-41 0 -69 30t-28 76q0 47 28 80t69 33q43 0 71.5 -33t28.5 -80z" />
<glyph unicode="&#xa2;" horiz-adv-x="1011" d="M717 1335h57l-59 -217q74 -30 123 -70t69 -71q-8 -7 -34.5 -33t-34.5 -33q-66 60 -150 101l-235 -897q77 -27 120 -27q143 0 283 121q11 -11 24.5 -25.5t24 -25t23.5 -21.5q-101 -99 -184 -130.5t-171 -31.5q-56 0 -151 25q-7 -32 -25.5 -103.5t-21.5 -84.5h-58l56 215 q-117 74 -183.5 208.5t-66.5 301.5q0 121 28.5 223t75 170.5t107.5 117t125 70t129 21.5q9 0 74 -9q8 34 28.5 107t26.5 98zM238 537q0 -107 42.5 -212t120.5 -190l234 889h-51q-62 0 -122 -30.5t-111 -88.5t-82 -153.5t-31 -214.5z" />
<glyph unicode="&#xa3;" horiz-adv-x="1177" d="M328 111q-96 0 -178 -117l-80 43q4 6 11.5 16t31 37t48 50t60.5 46.5t70 34.5l63 338h-155v105h176q112 570 164 778v-2q15 58 43.5 104.5t60.5 73t68 44.5t64 24t52 6q71 0 132.5 -41t138.5 -123l-72 -58q-58 61 -101.5 89t-97.5 28q-15 0 -33 -4t-41 -16t-43 -30.5 t-38 -50.5t-27 -73v2q-20 -71 -131 -622l-25 -129h312v-105h-336l-64 -342q95 -27 185 -65q51 -23 74 -32t65.5 -20.5t77.5 -11.5q94 0 211 111l67 -68q-7 -6 -18.5 -16.5t-46 -37.5t-66.5 -47.5t-73.5 -37.5t-73.5 -17q-63 0 -122 18.5t-134 53.5q-114 49 -164 59 q-28 5 -55 5z" />
<glyph unicode="&#xa5;" horiz-adv-x="1230" d="M1067 453v-101h-381v-352h-121v352h-385v101h385v237h-385v98h365q-48 75 -229 358.5t-273 430.5h150l434 -682l438 682h139l-502 -789h365v-98h-381v-237h381z" />
<glyph unicode="&#xa8;" horiz-adv-x="856" d="M145 1370q0 36 22.5 59t55.5 23t54.5 -23t21.5 -59t-21.5 -59t-54.5 -23t-55.5 23t-22.5 59zM569 1370q0 36 22 59t56 23q33 0 54.5 -23t21.5 -59t-21.5 -59t-54.5 -23q-34 0 -56 23t-22 59z" />
<glyph unicode="&#xa9;" horiz-adv-x="1771" d="M119 788q0 161 61.5 307.5t166 252.5t249 168.5t303.5 62.5q158 0 302.5 -62.5t248.5 -168.5t165.5 -252.5t61.5 -307.5t-61.5 -307t-165.5 -251t-248.5 -167.5t-302.5 -62.5q-159 0 -303.5 62.5t-249 167.5t-166 251t-61.5 307zM905 1210q48 0 92 -15t72 -37t44 -39 t24 -29l-54 -54q-10 9 -27 22.5t-64.5 35.5t-90.5 22t-84.5 -21t-78 -61t-59 -108.5t-22.5 -153.5q0 -128 67.5 -221.5t170.5 -93.5q102 0 201 84l53 -54q-74 -72 -133 -96t-121 -24q-144 0 -234 115.5t-90 289.5q0 108 31 195t81 138.5t107.5 78t114.5 26.5zM178 788 q0 -142 57.5 -273t154.5 -226.5t230.5 -152t278.5 -56.5t278 56.5t229.5 152t154 226.5t57.5 273q0 144 -57.5 275.5t-154 226t-229.5 151t-278 56.5q-146 0 -279 -56.5t-230 -151t-154.5 -226t-57.5 -275.5z" />
<glyph unicode="&#xad;" horiz-adv-x="675" d="M559 610v-106h-432v106h432z" />
<glyph unicode="&#xae;" horiz-adv-x="1771" d="M686 375h-68v831h68v-51q71 38 123.5 51t110.5 13q32 -2 63 -10t62 -26t54 -43.5t37.5 -65t14.5 -87.5q-1 -112 -57 -172t-152 -88q86 -79 156 -180q82 -110 153 -172h-98q-47 35 -121 147q-120 163 -221 203h-125v-350zM889 788q36 1 67.5 10.5t61.5 30t48 61.5t19 97 q0 74 -48 114.5t-115 45.5q-128 9 -236 -57v-302h203zM119 788q0 161 61.5 307.5t166 252.5t249 168.5t303.5 62.5q158 0 302.5 -62.5t248.5 -168.5t165.5 -252.5t61.5 -307.5t-61.5 -307t-165.5 -251t-248.5 -167.5t-302.5 -62.5q-159 0 -303.5 62.5t-249 167.5t-166 251 t-61.5 307zM178 788q0 -142 57.5 -273t154.5 -226.5t230.5 -152t278.5 -56.5t278 56.5t229.5 152t154 226.5t57.5 273q0 144 -57.5 275.5t-154 226t-229.5 151t-278 56.5q-146 0 -279 -56.5t-230 -151t-154.5 -226t-57.5 -275.5z" />
<glyph unicode="&#xb4;" horiz-adv-x="673" d="M389 1548h135l-301 -266h-73z" />
<glyph unicode="&#xb6;" horiz-adv-x="1470" d="M895 -526h-57v1142q-8 -6 -22 -15t-55 -33t-79.5 -42.5t-89 -33.5t-90.5 -15q-163 0 -277 154t-114 395q0 151 66.5 276.5t190.5 200t281 74.5h668v-78h-158v-2025h-55v2025h-209v-2025z" />
<glyph unicode="&#xb7;" horiz-adv-x="473" d="M147 557q0 43 27.5 70.5t69.5 27.5q37 0 62.5 -28t25.5 -70q0 -45 -25.5 -74.5t-62.5 -29.5q-42 0 -69.5 29.5t-27.5 74.5z" />
<glyph unicode="&#xb8;" horiz-adv-x="636" d="M428 -281q0 54 -42 81.5t-116 29.5q31 58 95 168h47l-70 -143q156 -20 156 -136q0 -63 -47.5 -105t-143.5 -42q-77 0 -155 63l26 35q57 -45 129 -45q60 0 90.5 28t30.5 66zM270 -170z" />
<glyph unicode="&#xbf;" horiz-adv-x="999" d="M203 -205q0 -252 291 -252q68 0 129.5 25.5t107.5 67.5t72.5 73.5t48.5 65.5l68 -66q-7 -11 -21 -29t-59 -64.5t-92 -82.5t-116.5 -65t-137.5 -29q-99 0 -175 25t-118.5 62.5t-69 88t-35 93.5t-8.5 87q0 46 11 92t24 80.5t43 77t48 66.5t61 66.5t59.5 57.5t64.5 58 q89 80 134 134t45 99q0 44 -25.5 82.5t-77.5 85.5q17 15 44 36.5t38 31.5q56 -56 88.5 -112.5t32.5 -125.5q0 -47 -14.5 -89t-47.5 -85t-63 -74t-84 -81q-56 -50 -96 -90.5t-81 -93t-64 -107.5t-25 -109zM600 1038q0 -41 -25.5 -67.5t-62.5 -26.5q-36 0 -60 26.5t-24 67.5 t24.5 69t59.5 28q37 0 62.5 -28t25.5 -69z" />
<glyph unicode="&#xc0;" horiz-adv-x="1421" d="M348 1989h135l240 -265h-74zM647 1577h148l579 -1577h-131l-205 551h-637q-105 -290 -204 -551h-131zM717 1444q-33 -128 -275 -776h553q-105 281 -174.5 475t-86.5 247z" />
<glyph unicode="&#xc1;" horiz-adv-x="1421" d="M956 1989h134l-299 -265h-74zM647 1577h148l579 -1577h-131l-205 551h-637q-105 -290 -204 -551h-131zM717 1444q-33 -128 -275 -776h553q-105 281 -174.5 475t-86.5 247z" />
<glyph unicode="&#xc2;" horiz-adv-x="1421" d="M666 1989h108l283 -265h-115l-221 215l-221 -215h-117q61 55 152 141.5t131 123.5zM647 1577h148l579 -1577h-131l-205 551h-637q-105 -290 -204 -551h-131zM717 1444q-33 -128 -275 -776h553q-105 281 -174.5 475t-86.5 247z" />
<glyph unicode="&#xc3;" horiz-adv-x="1421" d="M647 1577h148l579 -1577h-131l-205 551h-637q-105 -290 -204 -551h-131zM717 1444q-33 -128 -275 -776h553q-105 281 -174.5 475t-86.5 247zM1077 1878l31 -57q-10 -10 -28.5 -25t-70.5 -41t-98 -29t-100 12.5t-96.5 36t-99 37t-105.5 15.5q-100 -5 -166 -58 q-7 15 -16 30.5t-15 27.5q4 4 11 10t28.5 21.5t43.5 27.5t53.5 22.5t60.5 12.5q56 4 125.5 -21t142 -52t133.5 -25q108 5 166 55z" />
<glyph unicode="&#xc4;" horiz-adv-x="1421" d="M647 1577h148l579 -1577h-131l-205 551h-637q-105 -290 -204 -551h-131zM717 1444q-33 -128 -275 -776h553q-105 281 -174.5 475t-86.5 247zM422 1823q0 36 22.5 59t55.5 23t54 -23t21 -59t-21 -59t-54 -23t-55.5 23t-22.5 59zM846 1823q0 36 22 59t56 23q33 0 54 -23 t21 -59t-21 -59t-54 -23q-34 0 -56 23t-22 59z" />
<glyph unicode="&#xc5;" horiz-adv-x="1421" d="M647 1577h148l579 -1577h-131l-205 551h-637q-105 -290 -204 -551h-131zM717 1444q-33 -128 -275 -776h553q-105 281 -174.5 475t-86.5 247zM537 1831q0 70 54.5 120t129.5 50q73 0 124.5 -49.5t51.5 -120.5q0 -72 -51.5 -123t-124.5 -51q-75 0 -129.5 51t-54.5 123z M604 1831q0 -43 35 -74t82 -31q43 0 75.5 31.5t32.5 73.5q0 40 -32.5 71t-75.5 31q-47 0 -82 -31t-35 -71z" />
<glyph unicode="&#xc6;" horiz-adv-x="1974" d="M1915 0h-856v551h-541q-49 -90 -158.5 -275.5t-158.5 -275.5h-162l950 1577h707q73 0 190 6v-121h-704v-585h598v-117h-598v-643h544q41 0 189 8v-125zM1059 1462l-475 -794h475v757v37z" />
<glyph unicode="&#xc7;" horiz-adv-x="1286" d="M1188 1411l-82 -80q-6 6 -18 15.5t-49.5 34.5t-76.5 44t-96 34.5t-112 15.5q-94 0 -181.5 -46.5t-158.5 -135t-113.5 -231.5t-42.5 -321t68 -327t181.5 -234t246.5 -88q250 -6 417 168l76 -74q-42 -42 -83 -74t-103 -67t-143.5 -55t-174.5 -21q-172 9 -311.5 109.5 t-220 274.5t-80.5 388q0 206 52.5 374t140.5 274t199.5 162.5t232.5 56.5q79 0 149.5 -17t115 -39.5t83 -54t55 -50t29.5 -36.5zM793 -281q0 54 -42 81.5t-116 29.5q42 79 94 168h47l-69 -143q155 -20 155 -136q0 -63 -47 -105t-143 -42q-78 0 -156 63l27 35q57 -45 129 -45 q60 0 90.5 28t30.5 66zM635 -170z" />
<glyph unicode="&#xc8;" horiz-adv-x="1118" d="M1040 0h-854v1577h637q78 0 189 6v-121h-705v-585h600v-117h-600v-643h545q40 0 188 8v-125zM262 1989h135l240 -265h-74z" />
<glyph unicode="&#xc9;" horiz-adv-x="1118" d="M1040 0h-854v1577h637q78 0 189 6v-121h-705v-585h600v-117h-600v-643h545q40 0 188 8v-125zM799 1989h135l-301 -265h-74z" />
<glyph unicode="&#xca;" horiz-adv-x="1118" d="M1040 0h-854v1577h637q78 0 189 6v-121h-705v-585h600v-117h-600v-643h545q40 0 188 8v-125zM510 1989h108l283 -265h-117l-221 215l-219 -215h-117q55 49 142 132.5t141 132.5z" />
<glyph unicode="&#xcb;" horiz-adv-x="1118" d="M1040 0h-854v1577h637q78 0 189 6v-121h-705v-585h600v-117h-600v-643h545q40 0 188 8v-125zM270 1774q0 36 22.5 58.5t55.5 22.5t54.5 -22.5t21.5 -58.5t-21.5 -59t-54.5 -23t-55.5 23t-22.5 59zM694 1774q0 36 22 58.5t56 22.5q33 0 54.5 -22.5t21.5 -58.5t-21.5 -59 t-54.5 -23q-34 0 -56 23t-22 59z" />
<glyph unicode="&#xcc;" horiz-adv-x="485" d="M307 0h-121v1577h121v-1577zM-82 1989h135l240 -265h-74z" />
<glyph unicode="&#xcd;" horiz-adv-x="485" d="M305 0h-123v1577h123v-1577zM438 1989h135l-301 -265h-73z" />
<glyph unicode="&#xce;" horiz-adv-x="561" d="M346 0h-123v1577h123v-1577zM229 1989h111l281 -265h-115l-221 215l-222 -215h-114q53 49 140 132.5t140 132.5z" />
<glyph unicode="&#xcf;" horiz-adv-x="483" d="M305 0h-121v1577h121v-1577zM-43 1823q0 36 22 57t56 21q33 0 54.5 -21t21.5 -57q0 -37 -21.5 -58.5t-54.5 -21.5q-35 0 -56.5 21.5t-21.5 58.5zM379 1823q0 36 22.5 57t55.5 21q34 0 54.5 -21t20.5 -57q0 -38 -20.5 -59t-54.5 -21q-33 0 -55.5 21.5t-22.5 58.5z" />
<glyph unicode="&#xd0;" horiz-adv-x="1558" d="M315 0v772h-163v105h163v677q267 33 404 33q86 0 158.5 -8.5t149 -31.5t136.5 -61t115 -100.5t91 -145.5t57.5 -200.5t21.5 -261.5q0 -365 -172.5 -571.5t-456.5 -206.5h-504zM815 877v-105h-377v-655h381q223 0 365.5 179t142.5 482q0 129 -17 230.5t-59 190.5t-110 148 t-173 92.5t-245 33.5q-39 0 -81 -3t-66.5 -6t-59 -8t-41.5 -6q-4 -2 -37 -2v-571h377z" />
<glyph unicode="&#xd1;" horiz-adv-x="1449" d="M305 0h-121v1577h133l775 -1264v2l22 -36l51 8l-2 37v1253h123v-1577h-133l-776 1268v-2l-21 39l-53 -11l2 -37v-1257zM1100 1886l30 -59q-4 -3 -10.5 -9t-28 -21t-43 -27t-53 -22.5t-61.5 -12.5q-70 -5 -201 49q-135 51 -201 49q-98 -5 -165 -55q-8 16 -17 31t-14 24 q4 4 10.5 10t28 21.5t43.5 27.5t53.5 22.5t60.5 12.5q15 -1 19.5 0.5t20 -1.5t21 -3t22.5 -5t23 -6.5t23.5 -7t24.5 -8t24.5 -8.5t24.5 -8q140 -53 199 -51q105 5 166 57z" />
<glyph unicode="&#xd2;" horiz-adv-x="1517" d="M774 1608q66 0 128 -12t126 -39.5t118.5 -70.5t103 -108t83 -147.5t54.5 -195t20 -244.5q0 -157 -25 -284.5t-70.5 -215.5t-104.5 -152t-133 -100.5t-148.5 -53t-157.5 -16.5q-66 0 -128.5 11t-127 38.5t-119.5 69.5t-104 107t-83.5 147.5t-54.5 196t-20 247.5 q0 185 38.5 331t100.5 236t148 149.5t173 82.5t183 23zM774 1493q-61 0 -120 -15.5t-118.5 -48t-110 -88.5t-90 -131t-61.5 -182.5t-22 -236.5q0 -156 32 -280.5t83.5 -202t121 -129.5t138.5 -72.5t141 -20.5q55 0 106.5 10.5t103.5 34.5t96.5 60.5t84 93t67 127t44 166 t16.5 208.5q0 153 -30.5 276t-80.5 202t-117.5 132t-138 75t-145.5 22zM424 1989h133l240 -265h-74z" />
<glyph unicode="&#xd3;" horiz-adv-x="1517" d="M774 1608q66 0 128 -12t126 -39.5t118.5 -70.5t103 -108t83 -147.5t54.5 -195t20 -244.5q0 -157 -25 -284.5t-70.5 -215.5t-104.5 -152t-133 -100.5t-148.5 -53t-157.5 -16.5q-66 0 -128.5 11t-127 38.5t-119.5 69.5t-104 107t-83.5 147.5t-54.5 196t-20 247.5 q0 185 38.5 331t100.5 236t148 149.5t173 82.5t183 23zM774 1493q-61 0 -120 -15.5t-118.5 -48t-110 -88.5t-90 -131t-61.5 -182.5t-22 -236.5q0 -156 32 -280.5t83.5 -202t121 -129.5t138.5 -72.5t141 -20.5q55 0 106.5 10.5t103.5 34.5t96.5 60.5t84 93t67 127t44 166 t16.5 208.5q0 153 -30.5 276t-80.5 202t-117.5 132t-138 75t-145.5 22zM989 1989h135l-301 -265h-73z" />
<glyph unicode="&#xd4;" horiz-adv-x="1517" d="M774 1608q66 0 128 -12t126 -39.5t118.5 -70.5t103 -108t83 -147.5t54.5 -195t20 -244.5q0 -157 -25 -284.5t-70.5 -215.5t-104.5 -152t-133 -100.5t-148.5 -53t-157.5 -16.5q-66 0 -128.5 11t-127 38.5t-119.5 69.5t-104 107t-83.5 147.5t-54.5 196t-20 247.5 q0 185 38.5 331t100.5 236t148 149.5t173 82.5t183 23zM774 1493q-61 0 -120 -15.5t-118.5 -48t-110 -88.5t-90 -131t-61.5 -182.5t-22 -236.5q0 -156 32 -280.5t83.5 -202t121 -129.5t138.5 -72.5t141 -20.5q55 0 106.5 10.5t103.5 34.5t96.5 60.5t84 93t67 127t44 166 t16.5 208.5q0 153 -30.5 276t-80.5 202t-117.5 132t-138 75t-145.5 22zM717 1989h110l281 -265h-115l-221 215l-221 -215h-115q53 49 140.5 132.5t140.5 132.5z" />
<glyph unicode="&#xd5;" horiz-adv-x="1517" d="M774 1608q66 0 128 -12t126 -39.5t118.5 -70.5t103 -108t83 -147.5t54.5 -195t20 -244.5q0 -157 -25 -284.5t-70.5 -215.5t-104.5 -152t-133 -100.5t-148.5 -53t-157.5 -16.5q-66 0 -128.5 11t-127 38.5t-119.5 69.5t-104 107t-83.5 147.5t-54.5 196t-20 247.5 q0 185 38.5 331t100.5 236t148 149.5t173 82.5t183 23zM774 1493q-61 0 -120 -15.5t-118.5 -48t-110 -88.5t-90 -131t-61.5 -182.5t-22 -236.5q0 -156 32 -280.5t83.5 -202t121 -129.5t138.5 -72.5t141 -20.5q55 0 106.5 10.5t103.5 34.5t96.5 60.5t84 93t67 127t44 166 t16.5 208.5q0 153 -30.5 276t-80.5 202t-117.5 132t-138 75t-145.5 22zM1141 1886l28 -59q-10 -10 -28 -24.5t-69 -39.5t-97 -28q-72 -5 -203 49q-135 51 -199 49q-100 -5 -167 -55q-8 16 -17 31t-14 24q4 4 10.5 10t28.5 21.5t44 27.5t53.5 22.5t61.5 12.5q14 -1 18.5 0.5 t20 -1.5t21 -3t22 -4.5t23 -6.5t23.5 -7.5t24 -8t24.5 -8.5t24.5 -8q140 -53 201 -51q101 5 166 57z" />
<glyph unicode="&#xd6;" horiz-adv-x="1517" d="M774 1608q66 0 128 -12t126 -39.5t118.5 -70.5t103 -108t83 -147.5t54.5 -195t20 -244.5q0 -157 -25 -284.5t-70.5 -215.5t-104.5 -152t-133 -100.5t-148.5 -53t-157.5 -16.5q-66 0 -128.5 11t-127 38.5t-119.5 69.5t-104 107t-83.5 147.5t-54.5 196t-20 247.5 q0 185 38.5 331t100.5 236t148 149.5t173 82.5t183 23zM774 1493q-61 0 -120 -15.5t-118.5 -48t-110 -88.5t-90 -131t-61.5 -182.5t-22 -236.5q0 -156 32 -280.5t83.5 -202t121 -129.5t138.5 -72.5t141 -20.5q55 0 106.5 10.5t103.5 34.5t96.5 60.5t84 93t67 127t44 166 t16.5 208.5q0 153 -30.5 276t-80.5 202t-117.5 132t-138 75t-145.5 22zM483 1823q0 36 22.5 58t55.5 22t54.5 -22t21.5 -58q0 -37 -21.5 -59.5t-54.5 -22.5t-55.5 22.5t-22.5 59.5zM907 1823q0 36 22 58t56 22q33 0 54.5 -22t21.5 -58q0 -37 -21.5 -59.5t-54.5 -22.5 q-34 0 -56 22t-22 60z" />
<glyph unicode="&#xd8;" horiz-adv-x="1517" d="M774 1608q159 0 320 -84l65 127h101l-95 -178q239 -215 242 -682q0 -157 -25 -284.5t-70.5 -215.5t-104.5 -152t-133 -100.5t-148.5 -53t-157.5 -16.5q-164 0 -328 84l-65 -127h-99l91 178q-236 216 -236 682q0 185 38.5 331t100.5 236t148 149.5t173 82.5t183 23z M1286 786q0 340 -180 570l-606 -1184q128 -86 268 -86q55 0 106.5 10.5t103.5 34.5t96.5 60.5t84 93t67 127t44 166t16.5 208.5zM774 1493q-61 0 -120 -15.5t-118.5 -48t-110 -88.5t-90 -131t-61.5 -182.5t-22 -236.5q0 -334 178 -564l606 1182q-128 84 -262 84z" />
<glyph unicode="&#xd9;" horiz-adv-x="1370" d="M1204 481q0 -94 -20.5 -171t-52 -128.5t-76.5 -90.5t-89.5 -60.5t-97 -34.5t-92 -17t-80.5 -4q-42 0 -82.5 4t-93 17.5t-97.5 35.5t-90 61t-77 90.5t-52 128t-20 169.5v1096h123v-1092q0 -98 28.5 -172t70 -114.5t98 -65.5t101 -32t91.5 -7q44 0 89 8t100 33t96.5 65.5 t70 113t29.5 167.5v1096h123v-1096zM348 1989h135l240 -265h-74z" />
<glyph unicode="&#xda;" horiz-adv-x="1370" d="M1204 481q0 -94 -20.5 -171t-52 -128.5t-76.5 -90.5t-89.5 -60.5t-97 -34.5t-92 -17t-80.5 -4q-42 0 -82.5 4t-93 17.5t-97.5 35.5t-90 61t-77 90.5t-52 128t-20 169.5v1096h123v-1092q0 -98 28.5 -172t70 -114.5t98 -65.5t101 -32t91.5 -7q44 0 89 8t100 33t96.5 65.5 t70 113t29.5 167.5v1096h123v-1096zM913 1989h136l-301 -265h-74z" />
<glyph unicode="&#xdb;" horiz-adv-x="1370" d="M1204 481q0 -94 -20.5 -171t-52 -128.5t-76.5 -90.5t-89.5 -60.5t-97 -34.5t-92 -17t-80.5 -4q-42 0 -82.5 4t-93 17.5t-97.5 35.5t-90 61t-77 90.5t-52 128t-20 169.5v1096h123v-1092q0 -98 28.5 -172t70 -114.5t98 -65.5t101 -32t91.5 -7q44 0 89 8t100 33t96.5 65.5 t70 113t29.5 167.5v1096h123v-1096zM645 1989h109l282 -265h-116l-220 215l-221 -215h-117q61 55 152 141.5t131 123.5z" />
<glyph unicode="&#xdc;" horiz-adv-x="1370" d="M1204 481q0 -94 -20.5 -171t-52 -128.5t-76.5 -90.5t-89.5 -60.5t-97 -34.5t-92 -17t-80.5 -4q-42 0 -82.5 4t-93 17.5t-97.5 35.5t-90 61t-77 90.5t-52 128t-20 169.5v1096h123v-1092q0 -98 28.5 -172t70 -114.5t98 -65.5t101 -32t91.5 -7q44 0 89 8t100 33t96.5 65.5 t70 113t29.5 167.5v1096h123v-1096zM412 1823q0 36 21.5 58t55.5 22q32 0 54 -22t22 -58q0 -37 -22 -59.5t-54 -22.5q-34 0 -55.5 22t-21.5 60zM834 1823q0 36 22 58t55 22q34 0 55 -22t21 -58q0 -38 -21 -60t-55 -22q-33 0 -55 22.5t-22 59.5z" />
<glyph unicode="&#xdd;" horiz-adv-x="1230" d="M1065 1577h139l-518 -817v-760h-121v760l-520 817h148l434 -682zM774 2009h135l-301 -264h-73z" />
<glyph unicode="&#xde;" horiz-adv-x="1255" d="M307 0h-123v1577h123v-315q203 122 377 122q201 0 328 -143t127 -369q0 -289 -123 -440t-348 -151q-165 0 -361 137v-418zM1024 872q0 175 -108 283.5t-293 108.5q-155 0 -316 -119v-588q170 -151 371 -151q159 0 252.5 118.5t93.5 347.5z" />
<glyph unicode="&#xdf;" horiz-adv-x="1302" d="M549 842v112q55 4 104 15t104.5 37.5t95 65.5t65.5 104t26 149q-1 74 -34.5 129.5t-83 84.5t-97.5 42.5t-90 13.5q-282 0 -301 -243v-1352h-113v1020h-151v106h151v226q0 124 56 207t146.5 119t211.5 36q52 0 105.5 -10.5t111.5 -38.5t102 -70.5t72.5 -114t28.5 -161.5 q-3 -250 -193 -391q68 -20 126 -55t105 -86.5t74 -124.5t27 -160q0 -76 -10.5 -139.5t-44 -133.5t-89.5 -118t-154.5 -79.5t-231.5 -31.5q-49 0 -115 16v123q70 -8 113 -8q99 0 173.5 20t120.5 53.5t74 82.5t38.5 100.5t10.5 114.5q0 344 -534 340z" />
<glyph unicode="&#xe0;" horiz-adv-x="1122" d="M674 1028q-167 0 -451 -149l-6 12q-45 83 -55 82q305 178 536 178q45 0 82 -12t62.5 -31.5t45.5 -47t31.5 -55.5t18.5 -59.5t9.5 -57t2.5 -50.5v-629q0 -93 105 -154q-16 -14 -40.5 -37t-39.5 -36q-102 48 -137 213q-96 -102 -205 -161t-215 -59q-12 0 -29.5 2t-47 9 t-57.5 19t-58.5 34.5t-53 52.5t-37 76.5t-14.5 103.5q0 47 8 87.5t33.5 86t67.5 80.5t114.5 64t169.5 43q280 44 324 55v150q0 27 -5 52.5t-19.5 60t-50.5 56t-89 21.5zM193 862l43 -10l-13 27l-16 -11zM162 973l-2 -2zM410 80q115 -7 233.5 56.5t194.5 158.5v285 q-82 -17 -238 -41l-76 -13q-91 -14 -152 -40.5t-90.5 -62.5t-40 -71t-10.5 -80q0 -46 15.5 -82.5t36.5 -56t48.5 -32t45.5 -16.5t33 -5zM244 1565h137l242 -269h-74z" />
<glyph unicode="&#xe1;" horiz-adv-x="1122" d="M774 1565h135l-303 -269h-76zM674 1038q-54 0 -119 -16.5t-138.5 -49t-105 -48t-88.5 -45.5l-61 94q305 178 536 178q45 0 82 -12t62.5 -31.5t45.5 -47t31.5 -55.5t18.5 -59.5t9.5 -57t2.5 -50.5v-629q0 -93 105 -154q-16 -14 -40.5 -37t-39.5 -36q-102 48 -137 213 q-96 -102 -205 -161t-215 -59q-12 0 -29.5 2t-47 9t-57.5 19t-58.5 34.5t-53 52.5t-37 76.5t-14.5 103.5q0 47 8 87.5t33.5 86t67.5 80.5t114.5 64t169.5 43q280 44 324 55v150q0 20 -2 40.5t-12 51t-26.5 53t-48.5 39t-75 16.5zM162 973zM410 80q112 -7 229 67.5t199 176.5 v256q-82 -17 -238 -41l-76 -13q-91 -14 -152 -40.5t-90.5 -62.5t-40 -71t-10.5 -80q0 -46 15.5 -82.5t36.5 -56t48.5 -32t45.5 -16.5t33 -5z" />
<glyph unicode="&#xe2;" horiz-adv-x="1122" d="M520 1565h111l284 -269h-116l-224 217l-223 -217h-116q54 50 142 134.5t142 134.5zM674 1038q-54 0 -119 -16.5t-138.5 -49t-105 -48t-88.5 -45.5l-61 94q305 178 536 178q45 0 82 -12t62.5 -31.5t45.5 -47t31.5 -55.5t18.5 -59.5t9.5 -57t2.5 -50.5v-629q0 -93 105 -154 q-16 -14 -40.5 -37t-39.5 -36q-102 48 -137 213q-96 -102 -205 -161t-215 -59q-12 0 -29.5 2t-47 9t-57.5 19t-58.5 34.5t-53 52.5t-37 76.5t-14.5 103.5q0 47 8 87.5t33.5 86t67.5 80.5t114.5 64t169.5 43q280 44 324 55v150q0 20 -2 40.5t-12 51t-26.5 53t-48.5 39 t-75 16.5zM162 973zM410 80q112 -7 229 67.5t199 176.5v256q-82 -17 -238 -41l-76 -13q-91 -14 -152 -40.5t-90.5 -62.5t-40 -71t-10.5 -80q0 -46 15.5 -82.5t36.5 -56t48.5 -32t45.5 -16.5t33 -5z" />
<glyph unicode="&#xe3;" horiz-adv-x="1122" d="M948 1460l29 -59q-4 -4 -10.5 -10t-28 -21.5t-43.5 -27.5t-53.5 -22.5t-61.5 -12.5q-65 -5 -205 49q-130 53 -200 51q-103 -5 -168 -57q-8 14 -17.5 29.5t-15.5 27.5q4 4 11 10t29 22t44.5 28t54.5 23t62 13q11 1 23.5 0.5t29 -4t26.5 -6t31.5 -9t28.5 -9t33 -11 t31 -10.5q131 -53 202 -51q108 5 168 57zM674 1038q-54 0 -119 -16.5t-138.5 -49t-105 -48t-88.5 -45.5l-61 94q305 178 536 178q45 0 82 -12t62.5 -31.5t45.5 -47t31.5 -55.5t18.5 -59.5t9.5 -57t2.5 -50.5v-629q0 -93 105 -154q-16 -14 -40.5 -37t-39.5 -36 q-102 48 -137 213q-96 -102 -205 -161t-215 -59q-12 0 -29.5 2t-47 9t-57.5 19t-58.5 34.5t-53 52.5t-37 76.5t-14.5 103.5q0 47 8 87.5t33.5 86t67.5 80.5t114.5 64t169.5 43q280 44 324 55v150q0 20 -2 40.5t-12 51t-26.5 53t-48.5 39t-75 16.5zM162 973zM410 80 q112 -7 229 67.5t199 176.5v256q-82 -17 -238 -41l-76 -13q-91 -14 -152 -40.5t-90.5 -62.5t-40 -71t-10.5 -80q0 -46 15.5 -82.5t36.5 -56t48.5 -32t45.5 -16.5t33 -5z" />
<glyph unicode="&#xe4;" horiz-adv-x="1122" d="M285 1386q0 35 22 57.5t55 22.5t55.5 -22.5t22.5 -57.5q0 -37 -22.5 -60t-55.5 -23t-55 23t-22 60zM713 1386q0 35 22 57.5t56 22.5t54.5 -22.5t20.5 -57.5q0 -38 -20.5 -60.5t-54.5 -22.5t-56 22.5t-22 60.5zM674 1038q-54 0 -119 -16.5t-138.5 -49t-105 -48 t-88.5 -45.5l-61 94q305 178 536 178q45 0 82 -12t62.5 -31.5t45.5 -47t31.5 -55.5t18.5 -59.5t9.5 -57t2.5 -50.5v-629q0 -93 105 -154q-16 -14 -40.5 -37t-39.5 -36q-102 48 -137 213q-96 -102 -205 -161t-215 -59q-12 0 -29.5 2t-47 9t-57.5 19t-58.5 34.5t-53 52.5 t-37 76.5t-14.5 103.5q0 47 8 87.5t33.5 86t67.5 80.5t114.5 64t169.5 43q280 44 324 55v150q0 20 -2 40.5t-12 51t-26.5 53t-48.5 39t-75 16.5zM162 973zM410 80q112 -7 229 67.5t199 176.5v256q-82 -17 -238 -41l-76 -13q-91 -14 -152 -40.5t-90.5 -62.5t-40 -71 t-10.5 -80q0 -46 15.5 -82.5t36.5 -56t48.5 -32t45.5 -16.5t33 -5z" />
<glyph unicode="&#xe5;" horiz-adv-x="1122" d="M674 1038q-54 0 -119 -16.5t-138.5 -49t-105 -48t-88.5 -45.5l-61 94q305 178 536 178q45 0 82 -12t62.5 -31.5t45.5 -47t31.5 -55.5t18.5 -59.5t9.5 -57t2.5 -50.5v-629q0 -93 105 -154q-16 -14 -40.5 -37t-39.5 -36q-102 48 -137 213q-96 -102 -205 -161t-215 -59 q-12 0 -29.5 2t-47 9t-57.5 19t-58.5 34.5t-53 52.5t-37 76.5t-14.5 103.5q0 47 8 87.5t33.5 86t67.5 80.5t114.5 64t169.5 43q280 44 324 55v150q0 20 -2 40.5t-12 51t-26.5 53t-48.5 39t-75 16.5zM162 973zM410 80q112 -7 229 67.5t199 176.5v256q-82 -17 -238 -41 l-76 -13q-91 -14 -152 -40.5t-90.5 -62.5t-40 -71t-10.5 -80q0 -46 15.5 -82.5t36.5 -56t48.5 -32t45.5 -16.5t33 -5zM399 1417q0 70 55 120t130 50q73 0 124.5 -49.5t51.5 -120.5q0 -72 -51.5 -123t-124.5 -51q-75 0 -130 51t-55 123zM467 1417q0 -43 35 -73.5t82 -30.5 q43 0 75.5 31t32.5 73q0 40 -32.5 71.5t-75.5 31.5q-47 0 -82 -31.5t-35 -71.5z" />
<glyph unicode="&#xe6;" horiz-adv-x="1806" d="M666 1151q154 0 239 -193q165 193 359 193q83 0 151.5 -24t113 -60.5t78 -86.5t51 -96.5t28.5 -96.5t13.5 -79.5t2.5 -52.5v-61h-797q-8 -232 88 -370t279 -138q82 0 130 14q123 38 234 174q14 -12 68 -67q-41 -50 -83.5 -88.5t-74.5 -62.5t-71.5 -41t-61.5 -24.5 t-57 -11.5t-45 -4h-39q-131 0 -236 65.5t-178 182.5q-107 -123 -221 -185.5t-223 -62.5q-16 0 -37.5 3t-58.5 12t-70 30t-64.5 52t-50 83t-18.5 117q0 46 9 86.5t35.5 85.5t69 80t114 64.5t165.5 44.5q235 35 295 51v154q0 21 -2 42t-12 53t-26 55.5t-48 41t-74 17.5 q-37 0 -83 -10.5t-84 -23.5t-89 -35.5t-77 -36t-70.5 -37t-49.5 -25.5l-61 94q312 178 539 178zM127 973zM403 80q114 -7 232.5 64.5t198.5 170.5q-31 97 -31 256q-126 -21 -285 -45q-91 -14 -152 -40.5t-90.5 -62.5t-40 -71t-10.5 -80q0 -46 15.5 -82.5t36.5 -56t48 -32 t45 -16.5t33 -5zM1264 1040q-127 0 -212 -90.5t-128 -240.5h665q-7 44 -20 86.5t-39 88t-61 79t-88 55.5t-117 22z" />
<glyph unicode="&#xe7;" horiz-adv-x="1011" d="M592 1151q190 0 323 -162l-69 -69q-4 5 -12 13t-34 29t-54 37.5t-71 29.5t-87 13q-62 0 -123 -32t-112.5 -91.5t-83 -157.5t-31.5 -218q0 -124 41 -228.5t120 -168.5t179 -64q135 0 284 129q16 -16 37.5 -38.5t34.5 -35.5q-103 -99 -185.5 -130.5t-170.5 -31.5 q-202 0 -328.5 162.5t-126.5 405.5q0 123 28.5 225.5t75.5 172t108 118t126 70.5t131 22zM608 -281q0 54 -41.5 81.5t-115.5 29.5q42 79 94 168h47l-70 -143q156 -20 156 -136q0 -63 -47.5 -105t-143.5 -42q-77 0 -155 63l26 35q57 -45 129 -45q60 0 90.5 28t30.5 66z M451 -170z" />
<glyph unicode="&#xe8;" horiz-adv-x="1153" d="M121 551q0 165 57 301t165.5 217.5t248.5 81.5q83 0 151.5 -24t113 -60.5t78 -86.5t51 -96.5t28.5 -96.5t13.5 -79.5t2.5 -52.5v-61h-797q-8 -232 88 -370t279 -138q82 0 130 14q123 36 235 174q12 -11 24.5 -23.5t25 -25.5t17.5 -18q-41 -50 -83.5 -88.5t-74.5 -62.5 t-71.5 -41t-61.5 -24.5t-57 -11.5t-45 -4h-39q-93 0 -172 30t-135 83t-95 126t-58 158t-19 179zM592 1040q-127 0 -212 -90.5t-128 -240.5h666q-7 44 -20 86.5t-39.5 88t-61 79t-88 55.5t-117.5 22zM250 1565h135l244 -269h-76z" />
<glyph unicode="&#xe9;" horiz-adv-x="1153" d="M121 551q0 165 57 301t165.5 217.5t248.5 81.5q83 0 151.5 -24t113 -60.5t78 -86.5t51 -96.5t28.5 -96.5t13.5 -79.5t2.5 -52.5v-61h-797q-8 -232 88 -370t279 -138q82 0 130 14q123 36 235 174q12 -11 24.5 -23.5t25 -25.5t17.5 -18q-41 -50 -83.5 -88.5t-74.5 -62.5 t-71.5 -41t-61.5 -24.5t-57 -11.5t-45 -4h-39q-93 0 -172 30t-135 83t-95 126t-58 158t-19 179zM592 1040q-127 0 -212 -90.5t-128 -240.5h666q-7 44 -20 86.5t-39.5 88t-61 79t-88 55.5t-117.5 22zM801 1565h137l-305 -269h-74z" />
<glyph unicode="&#xea;" horiz-adv-x="1153" d="M121 551q0 165 57 301t165.5 217.5t248.5 81.5q83 0 151.5 -24t113 -60.5t78 -86.5t51 -96.5t28.5 -96.5t13.5 -79.5t2.5 -52.5v-61h-797q-8 -232 88 -370t279 -138q82 0 130 14q123 36 235 174q12 -11 24.5 -23.5t25 -25.5t17.5 -18q-41 -50 -83.5 -88.5t-74.5 -62.5 t-71.5 -41t-61.5 -24.5t-57 -11.5t-45 -4h-39q-93 0 -172 30t-135 83t-95 126t-58 158t-19 179zM592 1040q-127 0 -212 -90.5t-128 -240.5h666q-7 44 -20 86.5t-39.5 88t-61 79t-88 55.5t-117.5 22zM518 1565h111l284 -269h-116l-224 217l-223 -217h-117q54 50 142 134.5 t143 134.5z" />
<glyph unicode="&#xeb;" horiz-adv-x="1153" d="M121 551q0 165 57 301t165.5 217.5t248.5 81.5q83 0 151.5 -24t113 -60.5t78 -86.5t51 -96.5t28.5 -96.5t13.5 -79.5t2.5 -52.5v-61h-797q-8 -232 88 -370t279 -138q82 0 130 14q123 36 235 174q12 -11 24.5 -23.5t25 -25.5t17.5 -18q-41 -50 -83.5 -88.5t-74.5 -62.5 t-71.5 -41t-61.5 -24.5t-57 -11.5t-45 -4h-39q-93 0 -172 30t-135 83t-95 126t-58 158t-19 179zM592 1040q-127 0 -212 -90.5t-128 -240.5h666q-7 44 -20 86.5t-39.5 88t-61 79t-88 55.5t-117.5 22zM283 1386q0 35 22.5 57.5t56.5 22.5q31 0 53.5 -22.5t22.5 -57.5 q0 -37 -22 -60t-54 -23q-34 0 -56.5 22.5t-22.5 60.5zM711 1386q0 35 21.5 57.5t55.5 22.5t55 -22.5t21 -57.5q0 -38 -21 -60.5t-55 -22.5t-55.5 22.5t-21.5 60.5z" />
<glyph unicode="&#xec;" horiz-adv-x="485" d="M195 1126h112v-1126h-112v1126zM-82 1565h135l242 -269h-74z" />
<glyph unicode="&#xed;" horiz-adv-x="485" d="M188 1126h113v-1126h-113v1126zM442 1565h136l-304 -269h-75z" />
<glyph unicode="&#xee;" horiz-adv-x="561" d="M229 1126h113v-1126h-113v1126zM231 1565h111l285 -269h-117l-223 217l-224 -217h-116q55 50 142.5 134.5t141.5 134.5z" />
<glyph unicode="&#xef;" horiz-adv-x="483" d="M188 1126h113v-1126h-113v1126zM-45 1386q0 36 23.5 61.5t56.5 25.5q31 0 53.5 -26t22.5 -61q0 -38 -22.5 -64t-53.5 -26q-34 0 -57 26t-23 64zM383 1386q0 36 22.5 61.5t55.5 25.5t55.5 -25.5t22.5 -61.5q0 -38 -22 -64t-56 -26t-56 26t-22 64z" />
<glyph unicode="&#xf0;" horiz-adv-x="1218" d="M516 1593q53 0 135 -16q10 16 33.5 48.5t34.5 49.5l61 -41l-57 -88q97 -52 173.5 -144t123 -202t70.5 -226.5t24 -228.5q0 -362 -136.5 -561.5t-385.5 -199.5q-103 0 -186 35t-135 89t-87 123.5t-49 135t-14 127.5q0 164 55.5 294t158.5 204.5t236 74.5q192 0 424 -213 q-33 204 -119 366.5t-219 233.5q-13 -21 -129 -199q-13 8 -29.5 20t-29.5 19l113 174q-47 11 -66 11q-129 0 -229 -62l-54 92q129 84 283 84zM592 98q188 0 292.5 159.5t112.5 451.5q-189 243 -426 243q-148 0 -241.5 -130.5t-93.5 -327.5q0 -48 10.5 -99t37.5 -105t66 -96 t102 -69t140 -27z" />
<glyph unicode="&#xf1;" d="M299 0h-115v1126h115v-256q128 122 271.5 201.5t271.5 79.5q237 0 237 -342v-809h-114v809q0 219 -123 219q-82 0 -162.5 -28.5t-154 -81t-121 -94.5t-105.5 -101v-723zM971 1444l30 -58q-4 -4 -10.5 -10t-28 -21.5t-43.5 -27.5t-53.5 -22.5t-60.5 -12.5 q-46 -3 -100 12.5t-97 36t-99.5 37t-105.5 15.5q-99 -5 -165 -58q-7 15 -16 30.5t-15 27.5q4 4 10.5 10t28 21.5t43.5 27.5t53.5 22.5t60.5 12.5q56 4 125.5 -21t142.5 -52t134 -25q108 5 166 55z" />
<glyph unicode="&#xf2;" horiz-adv-x="1171" d="M121 563q0 126 27 227t72 167t107 111t129 64t142 19q74 0 141 -19.5t129 -64t107 -111t71.5 -167.5t26.5 -226q0 -157 -40 -274.5t-109 -184t-150.5 -98t-175.5 -31.5q-75 0 -142 18t-129.5 61.5t-107 109.5t-71.5 168t-27 231zM958 563q0 124 -31 220.5t-83.5 152.5 t-114.5 84.5t-131 28.5q-70 0 -132 -27t-115 -82.5t-84 -152.5t-31 -224q0 -102 20.5 -185t55.5 -138t82 -93t98 -54.5t106 -16.5q69 0 131 27t114.5 82t83.5 152.5t31 225.5zM242 1565h137l242 -269h-74z" />
<glyph unicode="&#xf3;" horiz-adv-x="1171" d="M121 563q0 126 27 227t72 167t107 111t129 64t142 19q74 0 141 -19.5t129 -64t107 -111t71.5 -167.5t26.5 -226q0 -157 -40 -274.5t-109 -184t-150.5 -98t-175.5 -31.5q-75 0 -142 18t-129.5 61.5t-107 109.5t-71.5 168t-27 231zM958 563q0 124 -31 220.5t-83.5 152.5 t-114.5 84.5t-131 28.5q-70 0 -132 -27t-115 -82.5t-84 -152.5t-31 -224q0 -102 20.5 -185t55.5 -138t82 -93t98 -54.5t106 -16.5q69 0 131 27t114.5 82t83.5 152.5t31 225.5zM813 1565h137l-305 -269h-74z" />
<glyph unicode="&#xf4;" horiz-adv-x="1171" d="M121 563q0 126 27 227t72 167t107 111t129 64t142 19q74 0 141 -19.5t129 -64t107 -111t71.5 -167.5t26.5 -226q0 -157 -40 -274.5t-109 -184t-150.5 -98t-175.5 -31.5q-75 0 -142 18t-129.5 61.5t-107 109.5t-71.5 168t-27 231zM958 563q0 124 -31 220.5t-83.5 152.5 t-114.5 84.5t-131 28.5q-70 0 -132 -27t-115 -82.5t-84 -152.5t-31 -224q0 -102 20.5 -185t55.5 -138t82 -93t98 -54.5t106 -16.5q69 0 131 27t114.5 82t83.5 152.5t31 225.5zM541 1565h108l287 -269h-119l-223 217l-221 -217h-119q54 50 143.5 134.5t143.5 134.5z" />
<glyph unicode="&#xf5;" horiz-adv-x="1171" d="M121 563q0 126 27 227t72 167t107 111t129 64t142 19q74 0 141 -19.5t129 -64t107 -111t71.5 -167.5t26.5 -226q0 -157 -40 -274.5t-109 -184t-150.5 -98t-175.5 -31.5q-75 0 -142 18t-129.5 61.5t-107 109.5t-71.5 168t-27 231zM958 563q0 124 -31 220.5t-83.5 152.5 t-114.5 84.5t-131 28.5q-70 0 -132 -27t-115 -82.5t-84 -152.5t-31 -224q0 -102 20.5 -185t55.5 -138t82 -93t98 -54.5t106 -16.5q69 0 131 27t114.5 82t83.5 152.5t31 225.5zM967 1460l30 -59q-4 -4 -10.5 -10t-28.5 -21.5t-44 -27.5t-53.5 -22.5t-61.5 -12.5 q-62 -5 -205 49q-131 53 -201 51q-103 -5 -168 -57q-10 21 -32 57q4 4 11 10t29 22t44 28t54 23t62 13q11 1 24 0t28 -4t27 -5.5t31.5 -8.5t30 -9.5l33 -11l31.5 -10.5q131 -53 201 -51q112 5 168 57z" />
<glyph unicode="&#xf6;" horiz-adv-x="1171" d="M121 563q0 126 27 227t72 167t107 111t129 64t142 19q74 0 141 -19.5t129 -64t107 -111t71.5 -167.5t26.5 -226q0 -157 -40 -274.5t-109 -184t-150.5 -98t-175.5 -31.5q-75 0 -142 18t-129.5 61.5t-107 109.5t-71.5 168t-27 231zM958 563q0 124 -31 220.5t-83.5 152.5 t-114.5 84.5t-131 28.5q-70 0 -132 -27t-115 -82.5t-84 -152.5t-31 -224q0 -102 20.5 -185t55.5 -138t82 -93t98 -54.5t106 -16.5q69 0 131 27t114.5 82t83.5 152.5t31 225.5zM303 1386q0 35 23 57.5t57 22.5q31 0 53.5 -22.5t22.5 -57.5q0 -37 -22 -60t-54 -23 q-35 0 -57.5 22.5t-22.5 60.5zM731 1386q0 35 22.5 57.5t55.5 22.5q34 0 56 -22.5t22 -57.5q0 -38 -22 -60.5t-56 -22.5q-33 0 -55.5 23t-22.5 60z" />
<glyph unicode="&#xf8;" horiz-adv-x="1171" d="M121 563q0 126 27 227t72 167t107 111t129 64t142 19q107 0 225 -49l45 92h99l-74 -143q180 -166 180 -488q0 -157 -40 -274.5t-109 -184t-150.5 -98t-175.5 -31.5q-106 0 -236 50l-47 -93h-98l74 144q-170 160 -170 487zM958 563q0 204 -118 383l-422 -819 q89 -51 180 -51q69 0 131 27t114.5 82t83.5 152.5t31 225.5zM236 563q0 -205 110 -381l422 819q-101 48 -170 48q-70 0 -132 -27t-115 -82.5t-84 -152.5t-31 -224z" />
<glyph unicode="&#xf9;" d="M246 1565h137l242 -269h-74zM391 94q79 0 159 30t154.5 85.5t121 98t106.5 104.5v714h117v-1126h-117v244q-108 -113 -260 -191t-281 -78q-237 0 -237 342v809h114v-809q0 -223 123 -223z" />
<glyph unicode="&#xfa;" d="M391 104q254 0 541 297v725h117v-1126h-117v250q-127 -120 -271 -197.5t-270 -77.5q-237 0 -237 342v809h114v-809q0 -213 123 -213zM817 1565h137l-305 -269h-74z" />
<glyph unicode="&#xfb;" d="M545 1565h110l285 -269h-117l-223 217l-223 -217h-117q37 35 91.5 87t100 95t93.5 87zM391 94q79 0 159 30t154.5 85.5t121 98t106.5 104.5v714h117v-1126h-117v244q-108 -113 -260 -191t-281 -78q-237 0 -237 342v809h114v-809q0 -223 123 -223z" />
<glyph unicode="&#xfc;" d="M307 1386q0 35 23 57.5t57 22.5q33 0 54.5 -22.5t21.5 -57.5q0 -38 -21.5 -60.5t-54.5 -22.5q-35 0 -57.5 22.5t-22.5 60.5zM735 1386q0 35 22.5 57.5t55.5 22.5q34 0 56 -22.5t22 -57.5q0 -38 -22 -60.5t-56 -22.5q-33 0 -55.5 23t-22.5 60zM391 94q79 0 159 30 t154.5 85.5t121 98t106.5 104.5v714h117v-1126h-117v244q-108 -113 -260 -191t-281 -78q-237 0 -237 342v809h114v-809q0 -223 123 -223z" />
<glyph unicode="&#xfd;" horiz-adv-x="1021" d="M53 1126h121l342 -882q337 827 383 882h131q-44 -58 -144.5 -289t-387.5 -933q-33 -84 -55.5 -135t-63.5 -118t-88 -112q-113 -108 -258 -121l-29 113q81 9 126 32.5t83 61.5h-2q47 45 85.5 108.5t94.5 200.5l62 152zM666 1565h137l-305 -269h-74z" />
<glyph unicode="&#xfe;" horiz-adv-x="1245" d="M295 -553h-111v2146h111v-708q96 124 216.5 195.5t248.5 70.5q116 -1 206 -81t136.5 -208.5t46.5 -279.5q0 -286 -122 -446.5t-337 -160.5q-72 0 -179 54t-216 143v-725zM760 1020q-264 2 -465 -313v-383q96 -96 203 -163t192 -67q156 0 250 132.5t94 355.5 q0 114 -33 212.5t-96.5 161.5t-144.5 64z" />
<glyph unicode="&#xff;" horiz-adv-x="1021" d="M53 1126h121l342 -882q337 827 383 882h131q-44 -58 -144.5 -289t-387.5 -933q-33 -84 -55.5 -135t-63.5 -118t-88 -112q-113 -108 -258 -121l-29 113q81 9 126 32.5t83 61.5h-2q47 45 85.5 108.5t94.5 200.5l62 152zM244 1386q0 35 22 57.5t56 22.5q32 0 53.5 -22.5 t21.5 -57.5q0 -38 -21 -60.5t-54 -22.5q-34 0 -56 22.5t-22 60.5zM670 1386q0 35 23 57.5t57 22.5q32 0 53.5 -22.5t21.5 -57.5q0 -38 -21 -60.5t-54 -22.5q-34 0 -57 22.5t-23 60.5z" />
<glyph unicode="&#x102;" horiz-adv-x="1421" d="M647 1577h148l579 -1577h-131l-205 551h-637q-105 -290 -204 -551h-131zM717 1444q-33 -128 -275 -776h553q-105 281 -174.5 475t-86.5 247zM723 1726q-116 0 -199.5 71.5t-105.5 180.5h76q14 -74 77 -126t152 -52q78 0 137.5 52.5t77.5 125.5h74q-19 -111 -97.5 -181.5 t-191.5 -70.5zM418 1978z" />
<glyph unicode="&#x103;" horiz-adv-x="1122" d="M674 1038q-54 0 -119 -16.5t-138.5 -49t-105 -48t-88.5 -45.5l-61 94q305 178 536 178q45 0 82 -12t62.5 -31.5t45.5 -47t31.5 -55.5t18.5 -59.5t9.5 -57t2.5 -50.5v-629q0 -93 105 -154q-16 -14 -40.5 -37t-39.5 -36q-102 48 -137 213q-96 -102 -205 -161t-215 -59 q-12 0 -29.5 2t-47 9t-57.5 19t-58.5 34.5t-53 52.5t-37 76.5t-14.5 103.5q0 47 8 87.5t33.5 86t67.5 80.5t114.5 64t169.5 43q280 44 324 55v150q0 20 -2 40.5t-12 51t-26.5 53t-48.5 39t-75 16.5zM162 973zM410 80q112 -7 229 67.5t199 176.5v256q-82 -17 -238 -41 l-76 -13q-91 -14 -152 -40.5t-90.5 -62.5t-40 -71t-10.5 -80q0 -46 15.5 -82.5t36.5 -56t48.5 -32t45.5 -16.5t33 -5zM573 1282q-116 0 -199.5 71.5t-105.5 180.5h76q14 -74 77 -126t152 -52q78 0 137.5 52.5t77.5 125.5h74q-19 -111 -97.5 -181.5t-191.5 -70.5zM268 1534z " />
<glyph unicode="&#x104;" horiz-adv-x="1421" d="M647 1577h148l579 -1577h-131l-205 551h-637q-105 -290 -204 -551h-131zM717 1444q-33 -128 -275 -776h553q-105 281 -174.5 475t-86.5 247zM1145 -166q0 43 28.5 92.5t55 77.5t55.5 53q3 -3 11.5 -8.5t11.5 -7.5q-5 -5 -12.5 -13t-27 -32.5t-34.5 -47.5t-27 -54t-12 -56 q0 -45 37 -69.5t82 -24.5q69 0 119 41l45 -39q-74 -74 -164 -74q-63 0 -115.5 43t-52.5 119z" />
<glyph unicode="&#x105;" horiz-adv-x="1122" d="M674 1038q-54 0 -119 -16.5t-138.5 -49t-105 -48t-88.5 -45.5l-61 94q305 178 536 178q45 0 82 -12t62.5 -31.5t45.5 -47t31.5 -55.5t18.5 -59.5t9.5 -57t2.5 -50.5v-629q0 -93 105 -154q-16 -14 -40.5 -37t-39.5 -36q-102 48 -137 213q-96 -102 -205 -161t-215 -59 q-12 0 -29.5 2t-47 9t-57.5 19t-58.5 34.5t-53 52.5t-37 76.5t-14.5 103.5q0 47 8 87.5t33.5 86t67.5 80.5t114.5 64t169.5 43q280 44 324 55v150q0 20 -2 40.5t-12 51t-26.5 53t-48.5 39t-75 16.5zM162 973zM410 80q112 -7 229 67.5t199 176.5v256q-82 -17 -238 -41 l-76 -13q-91 -14 -152 -40.5t-90.5 -62.5t-40 -71t-10.5 -80q0 -46 15.5 -82.5t36.5 -56t48.5 -32t45.5 -16.5t33 -5zM866 -166q0 103 140 223q3 -3 11.5 -9t10.5 -7q-5 -5 -12.5 -13t-27 -32.5t-34.5 -47.5t-27 -54t-12 -56q0 -45 37 -69.5t82 -24.5q69 0 119 41l45 -39 q-74 -74 -164 -74q-63 0 -115.5 43t-52.5 119z" />
<glyph unicode="&#x106;" horiz-adv-x="1286" d="M956 1989h136l-301 -265h-74zM1178 1391l-82 -80q-6 6 -18 15.5t-50 34t-77 43.5t-96 34.5t-112 15.5q-94 0 -181.5 -46.5t-158 -134.5t-113 -231t-42.5 -321t67.5 -327t181 -234t246.5 -88q251 -6 418 168l76 -74q-42 -42 -83 -74t-103 -67t-143.5 -55t-174.5 -21 q-172 9 -311.5 109.5t-220 274.5t-80.5 388q0 206 52.5 374t140.5 273.5t198.5 162t232.5 56.5q79 0 149.5 -17t115.5 -39.5t83.5 -53.5t55 -49.5t29.5 -36.5z" />
<glyph unicode="&#x107;" horiz-adv-x="1011" d="M592 1151q190 0 323 -162l-69 -69q-4 5 -12 13t-34 29t-54 37.5t-71 29.5t-87 13q-62 0 -123 -32t-112.5 -91.5t-83 -157.5t-31.5 -218q0 -124 41 -228.5t120 -168.5t179 -64q135 0 284 129q16 -16 37.5 -38.5t34.5 -35.5q-103 -99 -185.5 -130.5t-170.5 -31.5 q-202 0 -328.5 162.5t-126.5 405.5q0 123 28.5 225.5t75.5 172t108 118t126 70.5t131 22zM754 1548h135l-301 -266h-74z" />
<glyph unicode="&#x108;" horiz-adv-x="1286" d="M1188 1411l-82 -80q-6 6 -18 15.5t-49.5 34.5t-76.5 44t-96 34.5t-112 15.5q-94 0 -181.5 -46.5t-158.5 -135t-113.5 -231.5t-42.5 -321t68 -327t181.5 -234t246.5 -88q250 -6 417 168l76 -74q-42 -42 -83 -74t-103 -67t-143.5 -55t-174.5 -21q-172 9 -311.5 109.5 t-220 274.5t-80.5 388q0 206 52.5 374t140.5 274t199.5 162.5t232.5 56.5q79 0 149.5 -17t115 -39.5t83 -54t55 -50t29.5 -36.5zM696 1978h109l282 -266h-116l-221 215l-220 -215h-116q281 265 282 266z" />
<glyph unicode="&#x109;" horiz-adv-x="1011" d="M592 1151q190 0 323 -162l-69 -69q-4 5 -12 13t-34 29t-54 37.5t-71 29.5t-87 13q-62 0 -123 -32t-112.5 -91.5t-83 -157.5t-31.5 -218q0 -124 41 -228.5t120 -168.5t179 -64q135 0 284 129q16 -16 37.5 -38.5t34.5 -35.5q-103 -99 -185.5 -130.5t-170.5 -31.5 q-202 0 -328.5 162.5t-126.5 405.5q0 123 28.5 225.5t75.5 172t108 118t126 70.5t131 22zM524 1548h109l282 -266h-116l-221 215l-220 -215h-116q281 265 282 266z" />
<glyph unicode="&#x10c;" horiz-adv-x="1286" d="M1188 1411l-82 -80q-6 6 -18 15.5t-49.5 34.5t-76.5 44t-96 34.5t-112 15.5q-94 0 -181.5 -46.5t-158.5 -135t-113.5 -231.5t-42.5 -321t68 -327t181.5 -234t246.5 -88q250 -6 417 168l76 -74q-42 -42 -83 -74t-103 -67t-143.5 -55t-174.5 -21q-172 9 -311.5 109.5 t-220 274.5t-80.5 388q0 206 52.5 374t140.5 274t199.5 162.5t232.5 56.5q79 0 149.5 -17t115 -39.5t83 -54t55 -50t29.5 -36.5zM791 1712h-109l-283 264h117l219 -213q112 112 221 213h117q-61 -55 -151.5 -141t-130.5 -123z" />
<glyph unicode="&#x10d;" horiz-adv-x="1011" d="M592 1151q190 0 323 -162l-69 -69q-4 5 -12 13t-34 29t-54 37.5t-71 29.5t-87 13q-62 0 -123 -32t-112.5 -91.5t-83 -157.5t-31.5 -218q0 -124 41 -228.5t120 -168.5t179 -64q135 0 284 129q16 -16 37.5 -38.5t34.5 -35.5q-103 -99 -185.5 -130.5t-170.5 -31.5 q-202 0 -328.5 162.5t-126.5 405.5q0 123 28.5 225.5t75.5 172t108 118t126 70.5t131 22zM629 1272h-109l-282 264h116l219 -213q100 100 222 213h116q-61 -55 -151.5 -141t-130.5 -123z" />
<glyph unicode="&#x10e;" horiz-adv-x="1429" d="M184 0v1554q267 33 404 33q86 0 158.5 -8.5t149 -31.5t136.5 -61t115 -100.5t91 -145.5t57.5 -200.5t21.5 -261.5q0 -365 -172.5 -571.5t-456.5 -206.5h-504zM1196 778q0 129 -17 230.5t-59 190.5t-110 148t-173 92.5t-245 33.5q-50 0 -164 -12.5t-123 -12.5v-1331h383 q223 0 365.5 179t142.5 482zM686 1710h-108l-283 264h117l219 -213q112 112 221 213h117q-62 -56 -154.5 -143t-128.5 -121z" />
<glyph unicode="&#x114;" horiz-adv-x="1118" d="M1040 0h-854v1577h637q78 0 189 6v-121h-705v-585h600v-117h-600v-643h545q40 0 188 8v-125zM604 1726q-116 0 -199.5 71.5t-105.5 180.5h76q14 -74 77 -126t152 -52q78 0 137.5 52.5t77.5 125.5h74q-19 -111 -97.5 -181.5t-191.5 -70.5zM299 1978z" />
<glyph unicode="&#x115;" horiz-adv-x="1153" d="M121 551q0 165 57 301t165.5 217.5t248.5 81.5q83 0 151.5 -24t113 -60.5t78 -86.5t51 -96.5t28.5 -96.5t13.5 -79.5t2.5 -52.5v-61h-797q-8 -232 88 -370t279 -138q82 0 130 14q123 36 235 174q12 -11 24.5 -23.5t25 -25.5t17.5 -18q-41 -50 -83.5 -88.5t-74.5 -62.5 t-71.5 -41t-61.5 -24.5t-57 -11.5t-45 -4h-39q-93 0 -172 30t-135 83t-95 126t-58 158t-19 179zM592 1040q-127 0 -212 -90.5t-128 -240.5h666q-7 44 -20 86.5t-39.5 88t-61 79t-88 55.5t-117.5 22zM590 1282q-116 0 -199.5 71.5t-105.5 180.5h75q14 -74 77.5 -126 t152.5 -52q78 0 137.5 52.5t77.5 125.5h74q-19 -111 -97.5 -181.5t-191.5 -70.5zM285 1534z" />
<glyph unicode="&#x118;" horiz-adv-x="1118" d="M1040 0h-854v1577h637q78 0 189 6v-121h-705v-585h600v-117h-600v-643h545q40 0 188 8v-125zM733 -166q0 43 28.5 92.5t55 77.5t55.5 53q3 -3 11.5 -8.5t11.5 -7.5q-5 -5 -12.5 -13t-27 -32.5t-34.5 -47.5t-27 -54t-12 -56q0 -45 37 -69.5t82 -24.5q69 0 119 41l45 -39 q-74 -74 -164 -74q-63 0 -115.5 43t-52.5 119z" />
<glyph unicode="&#x119;" horiz-adv-x="1153" d="M121 551q0 165 57 301t165.5 217.5t248.5 81.5q83 0 151.5 -24t113 -60.5t78 -86.5t51 -96.5t28.5 -96.5t13.5 -79.5t2.5 -52.5v-61h-797q-8 -232 88 -370t279 -138q82 0 130 14q123 36 235 174q12 -11 24.5 -23.5t25 -25.5t17.5 -18q-41 -50 -83.5 -88.5t-74.5 -62.5 t-71.5 -41t-61.5 -24.5t-57 -11.5t-45 -4h-39q-93 0 -172 30t-135 83t-95 126t-58 158t-19 179zM592 1040q-127 0 -212 -90.5t-128 -240.5h666q-7 44 -20 86.5t-39.5 88t-61 79t-88 55.5t-117.5 22zM522 -166q0 103 140 223q3 -3 6.5 -5.5t8 -5.5l7.5 -5q-5 -5 -12.5 -13 t-27 -32.5t-34.5 -47.5t-27 -54t-12 -56q0 -45 37 -69.5t82 -24.5q69 0 119 41l45 -39q-74 -74 -164 -74q-63 0 -115.5 43t-52.5 119z" />
<glyph unicode="&#x11a;" horiz-adv-x="1118" d="M1040 0h-854v1577h637q78 0 189 6v-121h-705v-585h600v-117h-600v-643h545q40 0 188 8v-125zM672 1710h-109l-282 264h116l219 -213q100 100 222 213h116q-61 -55 -151.5 -141t-130.5 -123z" />
<glyph unicode="&#x11b;" horiz-adv-x="1153" d="M121 551q0 165 57 301t165.5 217.5t248.5 81.5q83 0 151.5 -24t113 -60.5t78 -86.5t51 -96.5t28.5 -96.5t13.5 -79.5t2.5 -52.5v-61h-797q-8 -232 88 -370t279 -138q82 0 130 14q123 36 235 174q12 -11 24.5 -23.5t25 -25.5t17.5 -18q-41 -50 -83.5 -88.5t-74.5 -62.5 t-71.5 -41t-61.5 -24.5t-57 -11.5t-45 -4h-39q-93 0 -172 30t-135 83t-95 126t-58 158t-19 179zM592 1040q-127 0 -212 -90.5t-128 -240.5h666q-7 44 -20 86.5t-39.5 88t-61 79t-88 55.5t-117.5 22zM637 1272h-109l-282 264h116l220 -213q112 112 221 213h117 q-62 -56 -154.5 -143t-128.5 -121z" />
<glyph unicode="&#x11c;" horiz-adv-x="1503" d="M1337 754v-465q0 -87 -71 -161t-179.5 -115.5t-224.5 -43.5q-123 0 -227 26.5t-178 71.5t-132 108t-93.5 132t-59 148.5t-32.5 151.5t-9 147q0 133 24 248.5t65.5 201.5t98.5 155t121 115t135.5 76.5t140 44t136.5 13.5q73 0 143.5 -19t120 -44t95.5 -59.5t69 -57 t41 -44.5l-84 -81q-7 8 -21 20.5t-56 45t-84.5 57t-102 45t-113.5 20.5q-75 0 -154.5 -25t-160 -82t-143.5 -140t-102.5 -210t-39.5 -280q0 -61 7 -120.5t26 -126.5t48 -125t76 -112t107 -92t144.5 -61t185.5 -23q69 0 155 30t151 81t65 102v324h-238q-98 0 -143 16v113 q53 -6 151 -6h342zM780 1976h109l282 -266h-116l-221 215l-220 -215h-116q281 265 282 266z" />
<glyph unicode="&#x11d;" horiz-adv-x="1226" d="M283 803q0 -74 22 -129.5t54.5 -85.5t78.5 -48t83 -23t79 -5q40 0 79 7t83 27t77 51t54.5 84t21.5 122q0 54 -21.5 99.5t-55 74.5t-76.5 49t-83.5 28.5t-78.5 8.5t-79 -8.5t-84 -28.5t-77 -49t-55.5 -74.5t-21.5 -99.5zM201 238q0 91 164 223q-195 111 -195 342 q0 72 29.5 133t75.5 101t104 68t114 40t107 12q47 0 152 -24q67 61 149.5 95t161.5 34q40 0 94 -13q-3 -19 -11 -54.5t-11 -51.5q-25 4 -72 4q-97 0 -221 -51q186 -118 186 -293q0 -91 -29.5 -162t-74 -112t-104.5 -67t-113 -35t-107 -9q-71 0 -135 14q-66 -46 -108 -99.5 t-42 -101.5q9 -8 27 -13.5t49.5 -8.5t49.5 -4t61.5 -1.5t50.5 -0.5q11 0 27 -1t20 -1q63 -3 116 -8.5t113.5 -16.5t108.5 -26.5t93.5 -41t75.5 -57.5t48.5 -77.5t18.5 -100.5q0 -95 -34.5 -176.5t-102 -145t-177.5 -99.5t-252 -36q-123 0 -233 47.5t-177 130t-67 177.5 q1 65 14.5 114.5t42.5 89t59 66.5t79 63q-125 53 -125 134zM608 -471q220 0 336.5 98t116.5 246q0 42 -19 74.5t-55 54.5t-77 37.5t-98.5 24.5t-104 13.5t-107.5 8.5h-63q-14 0 -50 1t-53 1q-51 -32 -78.5 -53.5t-57.5 -58.5t-43 -86.5t-13 -118.5q0 -65 55 -121.5 t139 -88.5t172 -32zM518 1548h109l282 -266h-116l-222 215l-219 -215h-116q281 265 282 266z" />
<glyph unicode="&#x11e;" horiz-adv-x="1503" d="M1337 754v-465q0 -87 -71 -161t-179.5 -115.5t-224.5 -43.5q-123 0 -227 26.5t-178 71.5t-132 108t-93.5 132t-59 148.5t-32.5 151.5t-9 147q0 133 24 248.5t65.5 201.5t98.5 155t121 115t135.5 76.5t140 44t136.5 13.5q73 0 143.5 -19t120 -44t95.5 -59.5t69 -57 t41 -44.5l-84 -81q-7 8 -21 20.5t-56 45t-84.5 57t-102 45t-113.5 20.5q-75 0 -154.5 -25t-160 -82t-143.5 -140t-102.5 -210t-39.5 -280q0 -61 7 -120.5t26 -126.5t48 -125t76 -112t107 -92t144.5 -61t185.5 -23q69 0 155 30t151 81t65 102v324h-238q-98 0 -143 16v113 q53 -6 151 -6h342zM825 1731q-116 0 -199.5 71t-105.5 180h76q14 -74 77 -126t152 -52q78 0 137.5 52.5t77.5 125.5h74q-19 -111 -97.5 -181t-191.5 -70zM520 1982z" />
<glyph unicode="&#x11f;" horiz-adv-x="1226" d="M283 803q0 -74 22 -129.5t54.5 -85.5t78.5 -48t83 -23t79 -5q40 0 79 7t83 27t77 51t54.5 84t21.5 122q0 54 -21.5 99.5t-55 74.5t-76.5 49t-83.5 28.5t-78.5 8.5t-79 -8.5t-84 -28.5t-77 -49t-55.5 -74.5t-21.5 -99.5zM201 238q0 91 164 223q-195 111 -195 342 q0 72 29.5 133t75.5 101t104 68t114 40t107 12q47 0 152 -24q67 61 149.5 95t161.5 34q40 0 94 -13q-3 -19 -11 -54.5t-11 -51.5q-25 4 -72 4q-97 0 -221 -51q186 -118 186 -293q0 -91 -29.5 -162t-74 -112t-104.5 -67t-113 -35t-107 -9q-71 0 -135 14q-66 -46 -108 -99.5 t-42 -101.5q9 -8 27 -13.5t49.5 -8.5t49.5 -4t61.5 -1.5t50.5 -0.5q11 0 27 -1t20 -1q63 -3 116 -8.5t113.5 -16.5t108.5 -26.5t93.5 -41t75.5 -57.5t48.5 -77.5t18.5 -100.5q0 -95 -34.5 -176.5t-102 -145t-177.5 -99.5t-252 -36q-123 0 -233 47.5t-177 130t-67 177.5 q1 65 14.5 114.5t42.5 89t59 66.5t79 63q-125 53 -125 134zM608 -471q220 0 336.5 98t116.5 246q0 42 -19 74.5t-55 54.5t-77 37.5t-98.5 24.5t-104 13.5t-107.5 8.5h-63q-14 0 -50 1t-53 1q-51 -32 -78.5 -53.5t-57.5 -58.5t-43 -86.5t-13 -118.5q0 -65 55 -121.5 t139 -88.5t172 -32zM584 1282q-116 0 -199.5 71.5t-105.5 180.5h75q14 -74 77.5 -126t152.5 -52q78 0 137.5 52.5t77.5 125.5h73q-19 -111 -97 -181.5t-191 -70.5zM279 1534z" />
<glyph unicode="&#x124;" horiz-adv-x="1486" d="M305 0h-121v1577h121v-703h897v703h121v-1577h-121v758h-897v-758zM707 1976h108l283 -266h-117l-221 215l-219 -215h-117q245 231 283 266z" />
<glyph unicode="&#x125;" d="M299 0h-115v1679h115v-823q83 115 246 205t297 90q237 0 237 -342v-809h-114v809q0 103 -30 164t-93 61q-68 0 -139.5 -23.5t-124.5 -54t-114 -80t-91.5 -79t-73.5 -74.5v-723zM709 1548h108l283 -266h-117l-221 215l-219 -215h-117q245 231 283 266z" />
<glyph unicode="&#x128;" horiz-adv-x="495" d="M311 0h-121v1577h121v-1577zM623 1853l30 -57q-4 -4 -10.5 -10t-28 -21.5t-43.5 -27.5t-53.5 -22.5t-60.5 -12.5q-57 -4 -126.5 21.5t-142 53t-133.5 25.5q-101 -5 -166 -57q-7 15 -15.5 30t-14.5 27q4 4 10.5 10t28 21.5t43.5 27.5t53.5 22.5t60.5 12.5q56 4 125.5 -21 t142.5 -52t134 -25q108 5 166 55z" />
<glyph unicode="&#x129;" horiz-adv-x="485" d="M190 1126h113v-1126h-113v1126zM616 1444l31 -58q-4 -4 -10.5 -10t-28 -21.5t-43.5 -27.5t-53.5 -22.5t-60.5 -12.5q-46 -3 -100 12.5t-97 36t-99.5 37t-105.5 15.5q-100 -5 -166 -58q-7 15 -15.5 30.5t-14.5 27.5q4 4 10.5 10t28 21.5t43.5 27.5t53.5 22.5t60.5 12.5 q56 4 125.5 -21t142.5 -52t134 -25q107 5 165 55z" />
<glyph unicode="&#x12c;" horiz-adv-x="495" d="M311 0h-121v1577h121v-1577zM262 1724q-116 0 -199.5 71.5t-105.5 180.5h76q14 -74 77 -126t152 -52q78 0 137.5 52.5t77.5 125.5h74q-19 -111 -97.5 -181.5t-191.5 -70.5zM-43 1976z" />
<glyph unicode="&#x12d;" horiz-adv-x="485" d="M190 1126h113v-1126h-113v1126zM256 1282q-116 0 -199.5 71.5t-105.5 180.5h76q14 -74 77 -126t152 -52q78 0 137.5 52.5t77.5 125.5h74q-19 -111 -97.5 -181.5t-191.5 -70.5zM-49 1534z" />
<glyph unicode="&#x12e;" horiz-adv-x="495" d="M311 0h-121v1577h121v-1577zM94 -166q0 43 28.5 92.5t55 77.5t55.5 53q3 -3 11.5 -8.5t11.5 -7.5q-5 -5 -12.5 -13t-27 -32.5t-34.5 -47.5t-27 -54t-12 -56q0 -45 37 -69.5t82 -24.5q69 0 119 41l45 -39q-74 -74 -164 -74q-63 0 -115.5 43t-52.5 119z" />
<glyph unicode="&#x12f;" horiz-adv-x="526" d="M213 1126h113v-1126h-113v1126zM190 1499q0 36 23 58t57 22q32 0 54 -22t22 -58q0 -37 -22 -60.5t-54 -23.5q-34 0 -57 23t-23 61zM100 -166q0 103 140 223q3 -3 6.5 -5.5t8 -5.5l7.5 -5q-13 -13 -31.5 -34t-49.5 -75t-31 -94q0 -45 37 -69.5t81 -24.5q69 0 119 41 l45 -39q-74 -74 -164 -74q-63 0 -115.5 43t-52.5 119z" />
<glyph unicode="&#x131;" horiz-adv-x="485" d="M190 1126h113v-1126h-113v1126z" />
<glyph unicode="&#x134;" horiz-adv-x="552" d="M252 1577h123v-1634q0 -87 -21.5 -161.5t-54 -124t-78.5 -90t-86.5 -63t-85.5 -39.5q-8 19 -26 58.5t-27 64.5q51 18 95 47t81 71.5t58.5 103.5t21.5 133v1634zM264 1974h109l282 -266h-116l-222 215l-219 -215h-116q281 265 282 266z" />
<glyph unicode="&#x135;" horiz-adv-x="421" d="M106 1126h113v-1239q0 -169 -70.5 -291.5t-166.5 -168.5l-39 122q67 30 115 126.5t48 211.5v1239zM106 1548h109l283 -266h-117l-221 215l-219 -215h-117q281 265 282 266z" />
<glyph unicode="&#x143;" horiz-adv-x="1449" d="M934 1989h135l-301 -265h-74zM295 -20h-121v1576h133l846 -1378v125v1253h123v-1576h-133l-776 1267l-72 121v-131v-1257z" />
<glyph unicode="&#x144;" d="M299 0h-115v1126h115v-256q128 122 271.5 201.5t271.5 79.5q237 0 237 -342v-809h-114v809q0 219 -123 219q-82 0 -162.5 -28.5t-154 -81t-121 -94.5t-105.5 -101v-723zM799 1548h135l-301 -266h-74z" />
<glyph unicode="&#x147;" horiz-adv-x="1449" d="M305 0h-121v1577h133l846 -1378v125v1253h123v-1577h-133l-776 1268l-72 121v-132v-1257zM786 1716h-108l-283 264h117l219 -213q112 112 221 213h117q-62 -56 -154.5 -143t-128.5 -121z" />
<glyph unicode="&#x148;" d="M299 0h-115v1126h115v-256q128 122 271.5 201.5t271.5 79.5q237 0 237 -342v-809h-114v809q0 219 -123 219q-82 0 -162.5 -28.5t-154 -81t-121 -94.5t-105.5 -101v-723zM692 1272h-108l-283 264h117l219 -213q112 112 221 213h117q-62 -56 -154.5 -143t-128.5 -121z" />
<glyph unicode="&#x14e;" horiz-adv-x="1517" d="M774 1608q66 0 128 -12t126 -39.5t118.5 -70.5t103 -108t83 -147.5t54.5 -195t20 -244.5q0 -157 -25 -284.5t-70.5 -215.5t-104.5 -152t-133 -100.5t-148.5 -53t-157.5 -16.5q-66 0 -128.5 11t-127 38.5t-119.5 69.5t-104 107t-83.5 147.5t-54.5 196t-20 247.5 q0 185 38.5 331t100.5 236t148 149.5t173 82.5t183 23zM774 1493q-61 0 -120 -15.5t-118.5 -48t-110 -88.5t-90 -131t-61.5 -182.5t-22 -236.5q0 -156 32 -280.5t83.5 -202t121 -129.5t138.5 -72.5t141 -20.5q55 0 106.5 10.5t103.5 34.5t96.5 60.5t84 93t67 127t44 166 t16.5 208.5q0 153 -30.5 276t-80.5 202t-117.5 132t-138 75t-145.5 22zM772 1731q-116 0 -199.5 71t-105.5 180h76q14 -74 77 -126t152 -52q78 0 137.5 52.5t77.5 125.5h74q-19 -111 -97.5 -181t-191.5 -70zM467 1982z" />
<glyph unicode="&#x14f;" horiz-adv-x="1171" d="M121 563q0 126 27 227t72 167t107 111t129 64t142 19q74 0 141 -19.5t129 -64t107 -111t71.5 -167.5t26.5 -226q0 -157 -40 -274.5t-109 -184t-150.5 -98t-175.5 -31.5q-75 0 -142 18t-129.5 61.5t-107 109.5t-71.5 168t-27 231zM958 563q0 124 -31 220.5t-83.5 152.5 t-114.5 84.5t-131 28.5q-70 0 -132 -27t-115 -82.5t-84 -152.5t-31 -224q0 -102 20.5 -185t55.5 -138t82 -93t98 -54.5t106 -16.5q69 0 131 27t114.5 82t83.5 152.5t31 225.5zM598 1282q-116 0 -199.5 71.5t-105.5 180.5h76q14 -74 77 -126t152 -52q78 0 137.5 52.5 t77.5 125.5h74q-19 -111 -97.5 -181.5t-191.5 -70.5zM293 1534z" />
<glyph unicode="&#x152;" horiz-adv-x="1931" d="M1872 0h-895q-143 -31 -211 -31q-66 0 -128.5 11t-127 38.5t-120 69.5t-104.5 107t-84 147.5t-55 196t-20 247.5q0 155 26.5 283t74 215.5t108.5 152t135.5 101t148 53.5t152.5 17q113 0 207 -31h674q77 0 188 6v-121h-704v-585h600v-117h-600v-643h544q35 0 191 8v-125z M1016 152v1273q-111 68 -244 68q-61 0 -120 -15.5t-118.5 -48t-110 -88.5t-90 -131t-61.5 -182.5t-22 -236.5q0 -156 32 -280.5t83.5 -202t121 -129.5t138.5 -72.5t141 -20.5q130 0 250 66z" />
<glyph unicode="&#x153;" horiz-adv-x="1959" d="M115 563q0 156 40 273t109 184t150.5 99t175.5 32q123 0 235.5 -69.5t190.5 -213.5q74 131 179.5 207t225.5 76q83 0 152 -24t113.5 -60.5t78.5 -86.5t51.5 -96.5t28.5 -96.5t14 -80t3 -52v-61h-799q-8 -231 89 -369.5t278 -138.5q83 0 130 14q123 37 234 174 q13 -12 37 -35.5t33 -31.5q-41 -50 -84 -88.5t-75.5 -62.5t-72 -41t-61 -24.5t-57 -11.5t-45.5 -4h-39q-132 0 -240 71t-182 198q-79 -138 -188 -203.5t-230 -65.5q-75 0 -141.5 18t-128.5 61.5t-106.5 109.5t-71.5 168t-27 231zM950 575q-1 120 -33 214t-84 149t-113.5 83 t-129.5 28q-69 0 -131 -27t-115 -82.5t-84 -152.5t-31 -224q0 -102 21 -185t55.5 -138t81.5 -93t98 -54.5t105 -16.5q68 0 128.5 25.5t112.5 78.5t84 145t35 214v36zM1421 1040q-125 0 -211 -91t-129 -240h668q-8 45 -21.5 87t-40 87.5t-61 79t-88 55.5t-117.5 22z" />
<glyph unicode="&#x154;" horiz-adv-x="1308" d="M305 0h-121v1577h121v-90q187 118 387 121q181 0 292 -120.5t126 -322.5q-2 -90 -25 -165t-59.5 -127.5t-87 -92.5t-103.5 -63t-112 -35q52 -43 107.5 -108.5t88.5 -112t91 -131.5q58 -88 84 -125.5t75.5 -99.5t94.5 -101q-36 0 -76 -2t-72 -2q-31 26 -71 75t-69.5 91.5 t-78.5 116.5q-38 55 -51.5 74.5t-49 69t-54.5 71t-52 58t-57.5 55.5t-55.5 38.5t-61 28.5h-211v-678zM649 793q49 1 93.5 10.5t91 35.5t80 66.5t55 107.5t22.5 154q0 144 -88 231t-239 87q-182 0 -359 -119v-573h344zM891 1980h135l-301 -266h-74z" />
<glyph unicode="&#x155;" horiz-adv-x="864" d="M186 1126h115v-211q64 117 153 176.5t175 59.5q135 0 243 -94l-81 -84q-9 8 -24.5 20.5t-56.5 33t-73 20.5q-56 0 -111.5 -33.5t-99 -86.5t-74.5 -103t-51 -97v-727h-115v1126zM657 1548h136l-301 -266h-74z" />
<glyph unicode="&#x158;" horiz-adv-x="1308" d="M305 0h-121v1577h121v-90q187 118 387 121q181 0 292 -120.5t126 -322.5q-2 -90 -25 -165t-59.5 -127.5t-87 -92.5t-103.5 -63t-112 -35q52 -43 107.5 -108.5t88.5 -112t91 -131.5q58 -88 84 -125.5t75.5 -99.5t94.5 -101q-36 0 -76 -2t-72 -2q-31 26 -71 75t-69.5 91.5 t-78.5 116.5q-38 55 -51.5 74.5t-49 69t-54.5 71t-52 58t-57.5 55.5t-55.5 38.5t-61 28.5h-211v-678zM649 793q49 1 93.5 10.5t91 35.5t80 66.5t55 107.5t22.5 154q0 144 -88 231t-239 87q-182 0 -359 -119v-573h344zM735 1712h-108l-283 264h117l219 -213q112 112 221 213 h117q-62 -56 -154.5 -143t-128.5 -121z" />
<glyph unicode="&#x159;" horiz-adv-x="864" d="M186 1126h115v-211q64 117 153 176.5t175 59.5q135 0 243 -94l-81 -84q-9 8 -24.5 20.5t-56.5 33t-73 20.5q-56 0 -111.5 -33.5t-99 -86.5t-74.5 -103t-51 -97v-727h-115v1126zM537 1272h-109l-283 264h117l219 -213q112 112 221 213h117q-61 -55 -151.5 -141 t-130.5 -123z" />
<glyph unicode="&#x15a;" horiz-adv-x="1236" d="M127 264l86 76q85 -124 192 -188.5t250 -67.5q157 0 263 88.5t106 243.5q0 60 -22.5 110t-56.5 83.5t-89.5 64t-105 49t-119.5 39.5q-58 17 -97.5 30.5t-91 35t-85.5 43.5t-70.5 54t-57.5 68t-34.5 84.5t-12.5 104.5q2 88 25 158.5t61 115.5t82 76.5t95.5 47t92 22 t80.5 6.5q261 0 414 -176q-15 -13 -29 -25t-29.5 -26t-27.5 -25q-68 66 -144 101.5t-184 35.5q-35 0 -72 -7t-81 -28t-78 -54t-58.5 -90.5t-27.5 -131.5q-2 -60 27 -110t85 -86.5t115 -62t138 -49.5q58 -19 98.5 -33t94.5 -38t90.5 -47.5t76 -59t63 -74.5t39 -92t15.5 -114 q0 -109 -40.5 -196t-109.5 -141t-156 -82t-186 -28q-178 5 -303 75t-221 220zM803 1976h135l-301 -266h-74z" />
<glyph unicode="&#x15b;" horiz-adv-x="999" d="M276 850q0 -36 15.5 -66t38 -51t60.5 -40.5t70.5 -32t80.5 -27.5q51 -15 78 -23.5t72 -26t70.5 -33.5t57 -41.5t48 -54t28.5 -68.5t12 -87q0 -80 -33 -143.5t-87.5 -102t-121.5 -58.5t-139 -20q-123 0 -237 54t-183 157q7 6 34 30t42 36q59 -82 149 -132t199 -50 t187 57.5t78 161.5q0 42 -17.5 78t-43.5 60t-67.5 46t-76 34.5t-82.5 27.5q-60 17 -101.5 32t-91 41.5t-80 56.5t-51 75t-20.5 100q0 76 26 134t63.5 90.5t87 53t88.5 27t75 6.5q206 0 330 -115l-76 -73q-50 47 -108.5 70.5t-145.5 23.5q-33 0 -67.5 -8.5t-73 -28.5t-63 -64 t-24.5 -106zM653 1548h135l-301 -266h-73z" />
<glyph unicode="&#x15c;" horiz-adv-x="1236" d="M127 264l86 76q85 -124 192 -188.5t250 -67.5q157 0 263 88.5t106 243.5q0 60 -22.5 110t-56.5 83.5t-89.5 64t-105 49t-119.5 39.5q-58 17 -97.5 30.5t-91 35t-85.5 43.5t-70.5 54t-57.5 68t-34.5 84.5t-12.5 104.5q2 88 25 158.5t61 115.5t82 76.5t95.5 47t92 22 t80.5 6.5q261 0 414 -176q-15 -13 -29 -25t-29.5 -26t-27.5 -25q-68 66 -144 101.5t-184 35.5q-35 0 -72 -7t-81 -28t-78 -54t-58.5 -90.5t-27.5 -131.5q-2 -60 27 -110t85 -86.5t115 -62t138 -49.5q58 -19 98.5 -33t94.5 -38t90.5 -47.5t76 -59t63 -74.5t39 -92t15.5 -114 q0 -109 -40.5 -196t-109.5 -141t-156 -82t-186 -28q-178 5 -303 75t-221 220zM571 1978h109l283 -266h-117l-221 215l-219 -215h-117q281 265 282 266z" />
<glyph unicode="&#x15d;" horiz-adv-x="999" d="M276 850q0 -36 15.5 -66t38 -51t60.5 -40.5t70.5 -32t80.5 -27.5q51 -15 78 -23.5t72 -26t70.5 -33.5t57 -41.5t48 -54t28.5 -68.5t12 -87q0 -80 -33 -143.5t-87.5 -102t-121.5 -58.5t-139 -20q-123 0 -237 54t-183 157q7 6 34 30t42 36q59 -82 149 -132t199 -50 t187 57.5t78 161.5q0 42 -17.5 78t-43.5 60t-67.5 46t-76 34.5t-82.5 27.5q-60 17 -101.5 32t-91 41.5t-80 56.5t-51 75t-20.5 100q0 76 26 134t63.5 90.5t87 53t88.5 27t75 6.5q206 0 330 -115l-76 -73q-50 47 -108.5 70.5t-145.5 23.5q-33 0 -67.5 -8.5t-73 -28.5t-63 -64 t-24.5 -106zM453 1548h108l283 -266h-117l-221 215l-219 -215h-117q245 231 283 266z" />
<glyph unicode="&#x160;" horiz-adv-x="1236" d="M127 264l86 76q85 -124 192 -188.5t250 -67.5q157 0 263 88.5t106 243.5q0 60 -22.5 110t-56.5 83.5t-89.5 64t-105 49t-119.5 39.5q-58 17 -97.5 30.5t-91 35t-85.5 43.5t-70.5 54t-57.5 68t-34.5 84.5t-12.5 104.5q2 88 25 158.5t61 115.5t82 76.5t95.5 47t92 22 t80.5 6.5q261 0 414 -176q-15 -13 -29 -25t-29.5 -26t-27.5 -25q-68 66 -144 101.5t-184 35.5q-35 0 -72 -7t-81 -28t-78 -54t-58.5 -90.5t-27.5 -131.5q-2 -60 27 -110t85 -86.5t115 -62t138 -49.5q58 -19 98.5 -33t94.5 -38t90.5 -47.5t76 -59t63 -74.5t39 -92t15.5 -114 q0 -109 -40.5 -196t-109.5 -141t-156 -82t-186 -28q-178 5 -303 75t-221 220zM680 1712h-109l-282 264h117l219 -213q112 112 221 213h117q-62 -56 -154.5 -143t-128.5 -121z" />
<glyph unicode="&#x161;" horiz-adv-x="999" d="M276 850q0 -36 15.5 -66t38 -51t60.5 -40.5t70.5 -32t80.5 -27.5q51 -15 78 -23.5t72 -26t70.5 -33.5t57 -41.5t48 -54t28.5 -68.5t12 -87q0 -80 -33 -143.5t-87.5 -102t-121.5 -58.5t-139 -20q-123 0 -237 54t-183 157q7 6 34 30t42 36q59 -82 149 -132t199 -50 t187 57.5t78 161.5q0 42 -17.5 78t-43.5 60t-67.5 46t-76 34.5t-82.5 27.5q-60 17 -101.5 32t-91 41.5t-80 56.5t-51 75t-20.5 100q0 76 26 134t63.5 90.5t87 53t88.5 27t75 6.5q206 0 330 -115l-76 -73q-50 47 -108.5 70.5t-145.5 23.5q-33 0 -67.5 -8.5t-73 -28.5t-63 -64 t-24.5 -106zM561 1272h-108l-283 264h117l219 -213q112 112 221 213h117q-62 -56 -154.5 -143t-128.5 -121z" />
<glyph unicode="&#x164;" horiz-adv-x="1110" d="M25 1460v117h1077v-117h-484v-1460h-120v1460h-473zM616 1712h-108l-283 264h117l219 -213q112 112 221 213h117q-62 -56 -154.5 -143t-128.5 -121z" />
<glyph unicode="&#x168;" horiz-adv-x="1370" d="M1204 481q0 -94 -20.5 -171t-52 -128.5t-76.5 -90.5t-89.5 -60.5t-97 -34.5t-92 -17t-80.5 -4q-42 0 -82.5 4t-93 17.5t-97.5 35.5t-90 61t-77 90.5t-52 128t-20 169.5v1096h123v-1092q0 -98 28.5 -172t70 -114.5t98 -65.5t101 -32t91.5 -7q44 0 89 8t100 33t96.5 65.5 t70 113t29.5 167.5v1096h123v-1096zM1059 1845l31 -57q-4 -4 -11 -10t-28.5 -21.5t-43.5 -27.5t-53.5 -22.5t-60.5 -12.5q-57 -4 -126.5 21.5t-141.5 53t-133 25.5q-101 -5 -166 -57q-7 15 -16 30t-15 27q4 4 11 10t28.5 21.5t43.5 27.5t53.5 22.5t60.5 12.5q56 4 125.5 -21 t142 -52t133.5 -25q108 5 166 55z" />
<glyph unicode="&#x169;" d="M391 94q79 0 159 30t154.5 85.5t121 98t106.5 104.5v714h117v-1126h-117v244q-108 -113 -260 -191t-281 -78q-237 0 -237 342v809h114v-809q0 -223 123 -223zM977 1444l31 -58q-4 -4 -11 -10t-28.5 -21.5t-43.5 -27.5t-53.5 -22.5t-60.5 -12.5q-46 -3 -100 12.5t-96.5 36 t-99 37t-105.5 15.5q-100 -5 -166 -58q-7 15 -16 30.5t-15 27.5q4 4 11 10t28.5 21.5t43.5 27.5t53.5 22.5t60.5 12.5q56 4 125.5 -21t142 -52t133.5 -25q108 5 166 55z" />
<glyph unicode="&#x16c;" horiz-adv-x="1370" d="M1204 481q0 -94 -20.5 -171t-52 -128.5t-76.5 -90.5t-89.5 -60.5t-97 -34.5t-92 -17t-80.5 -4q-42 0 -82.5 4t-93 17.5t-97.5 35.5t-90 61t-77 90.5t-52 128t-20 169.5v1096h123v-1092q0 -98 28.5 -172t70 -114.5t98 -65.5t101 -32t91.5 -7q44 0 89 8t100 33t96.5 65.5 t70 113t29.5 167.5v1096h123v-1096zM705 1731q-116 0 -200 71.5t-106 179.5h76q14 -74 77.5 -126t152.5 -52q78 0 137.5 52.5t77.5 125.5h73q-19 -111 -97 -181t-191 -70zM399 1982z" />
<glyph unicode="&#x16d;" d="M391 94q79 0 159 30t154.5 85.5t121 98t106.5 104.5v714h117v-1126h-117v244q-108 -113 -260 -191t-281 -78q-237 0 -237 342v809h114v-809q0 -223 123 -223zM616 1282q-116 0 -199.5 71.5t-105.5 180.5h76q14 -74 77 -126t152 -52q78 0 137.5 52.5t77.5 125.5h74 q-19 -111 -97.5 -181.5t-191.5 -70.5zM311 1534z" />
<glyph unicode="&#x16e;" horiz-adv-x="1370" d="M1204 481q0 -94 -20.5 -171t-52 -128.5t-76.5 -90.5t-89.5 -60.5t-97 -34.5t-92 -17t-80.5 -4q-42 0 -82.5 4t-93 17.5t-97.5 35.5t-90 61t-77 90.5t-52 128t-20 169.5v1096h123v-1092q0 -98 28.5 -172t70 -114.5t98 -65.5t101 -32t91.5 -7q44 0 89 8t100 33t96.5 65.5 t70 113t29.5 167.5v1096h123v-1096zM508 1874q0 70 54.5 120t129.5 50q73 0 124.5 -49.5t51.5 -120.5q0 -72 -51.5 -123t-124.5 -51q-75 0 -129.5 51t-54.5 123zM575 1874q0 -43 35 -74t82 -31q43 0 76 31.5t33 73.5q0 40 -33 71t-76 31q-47 0 -82 -31t-35 -71z" />
<glyph unicode="&#x16f;" d="M391 94q79 0 159 30t154.5 85.5t121 98t106.5 104.5v714h117v-1126h-117v244q-108 -113 -260 -191t-281 -78q-237 0 -237 342v809h114v-809q0 -223 123 -223zM428 1417q0 70 54.5 120t129.5 50q73 0 124.5 -49.5t51.5 -120.5q0 -72 -51.5 -123t-124.5 -51 q-75 0 -129.5 51t-54.5 123zM496 1417q0 -43 34.5 -73.5t81.5 -30.5q43 0 76 31t33 73q0 40 -33 71.5t-76 31.5q-47 0 -81.5 -31.5t-34.5 -71.5z" />
<glyph unicode="&#x172;" horiz-adv-x="1370" d="M1204 481q0 -94 -20.5 -171t-52 -128.5t-76.5 -90.5t-89.5 -60.5t-97 -34.5t-92 -17t-80.5 -4q-42 0 -82.5 4t-93 17.5t-97.5 35.5t-90 61t-77 90.5t-52 128t-20 169.5v1096h123v-1092q0 -98 28.5 -172t70 -114.5t98 -65.5t101 -32t91.5 -7q44 0 89 8t100 33t96.5 65.5 t70 113t29.5 167.5v1096h123v-1096zM618 -166q0 103 140 223q3 -3 6.5 -5.5t8 -5.5l7.5 -5q-13 -13 -31.5 -34t-49.5 -75t-31 -94q0 -45 37 -69.5t81 -24.5q69 0 119 41l45 -39q-74 -74 -164 -74q-63 0 -115.5 43t-52.5 119z" />
<glyph unicode="&#x173;" d="M391 94q79 0 159 30t154.5 85.5t121 98t106.5 104.5v714h117v-1126h-117v244q-108 -113 -260 -191t-281 -78q-237 0 -237 342v809h114v-809q0 -223 123 -223zM803 -166q0 43 28.5 92.5t55 77.5t55.5 53q3 -3 11.5 -8.5t11.5 -7.5q-5 -5 -12.5 -13t-27 -32.5t-34.5 -47.5 t-27 -54t-12 -56q0 -45 37 -69.5t82 -24.5q69 0 119 41l45 -39q-74 -74 -164 -74q-63 0 -115.5 43t-52.5 119z" />
<glyph unicode="&#x174;" horiz-adv-x="1970" d="M612 0h-104q-75 265 -223.5 788.5t-223.5 788.5h127l373 -1397q32 125 367 1397h139l369 -1397q144 523 376 1397h123q-83 -302 -237 -842.5t-209 -734.5h-105q-52 185 -178 655.5t-209 763.5zM938 1972h109l282 -266h-117l-221 215l-219 -215h-117q245 231 283 266z" />
<glyph unicode="&#x175;" horiz-adv-x="1562" d="M504 0h-117l-326 1126h125l267 -987l276 987h115l280 -987q250 922 287 987h113q-25 -25 -110 -306.5t-158 -550.5l-72 -269h-111l-287 991q-102 -368 -282 -991zM733 1548h109l282 -266h-116l-222 215l-219 -215h-116q281 265 282 266z" />
<glyph unicode="&#x176;" horiz-adv-x="1230" d="M1065 1577h139l-518 -817v-760h-121v760l-520 817h148l434 -682zM569 1980h109l283 -266h-117l-221 215l-220 -215h-116q281 265 282 266z" />
<glyph unicode="&#x177;" horiz-adv-x="1021" d="M53 1126h121l342 -882q337 827 383 882h131q-44 -58 -144.5 -289t-387.5 -933q-33 -84 -55.5 -135t-63.5 -118t-88 -112q-113 -108 -258 -121l-29 113q81 9 126 32.5t83 61.5h-2q47 45 85.5 108.5t94.5 200.5l62 152zM463 1548h108l283 -266h-117l-221 215l-219 -215 h-117q245 231 283 266z" />
<glyph unicode="&#x178;" horiz-adv-x="1230" d="M1065 1577h139l-518 -817v-760h-121v760l-520 817h148l434 -682zM334 1823q0 36 22.5 58t55.5 22t54 -22t21 -58q0 -38 -21 -60t-54 -22t-55.5 22.5t-22.5 59.5zM758 1823q0 36 22 58t56 22q33 0 54 -22t21 -58q0 -38 -21 -60t-54 -22q-34 0 -56 22t-22 60z" />
<glyph unicode="&#x179;" horiz-adv-x="1222" d="M1128 154v-134q-26 -14 -80.5 -19t-95.5 -3l-41 2h-798v147l825 1299h-805v131h950v-143l-827 -1303h659q115 -2 213 23zM838 1974h135l-301 -266h-74z" />
<glyph unicode="&#x17a;" horiz-adv-x="1028" d="M956 123v-103q-12 -14 -42.5 -19t-55.5 -3l-24 2h-723v125l677 895h-677v106h811v-122l-678 -895h594q67 -2 118 14zM721 1548h135l-301 -266h-74z" />
<glyph unicode="&#x17d;" horiz-adv-x="1222" d="M1128 154v-134q-26 -14 -80.5 -19t-95.5 -3l-41 2h-798v147l825 1299h-805v131h950v-143l-827 -1303h659q115 -2 213 23zM719 1714h-109l-282 264h116l220 -213q112 112 221 213h116q-61 -55 -151.5 -141t-130.5 -123z" />
<glyph unicode="&#x17e;" horiz-adv-x="1028" d="M956 123v-103q-12 -14 -42.5 -19t-55.5 -3l-24 2h-723v125l677 895h-677v106h811v-122l-678 -895h594q67 -2 118 14zM575 1272h-108l-283 264h117l219 -213q112 112 221 213h117q-62 -56 -154.5 -143t-128.5 -121z" />
<glyph unicode="&#x1fc;" horiz-adv-x="1974" d="M1319 1989h133l-301 -265h-74zM1901 -20h-857v550h-540q-49 -90 -159 -275t-159 -275h-161l950 1576h706q55 0 191 7v-121h-705v-586h598v-117h-598v-643h545q41 0 189 8v-124zM1044 1442l-475 -795h475v758v37z" />
<glyph unicode="&#x1fd;" horiz-adv-x="1806" d="M666 1151q154 0 239 -193q165 193 359 193q83 0 151.5 -24t113 -60.5t78 -86.5t51 -96.5t28.5 -96.5t13.5 -79.5t2.5 -52.5v-61h-797q-8 -232 88 -370t279 -138q82 0 130 14q123 38 234 174q14 -12 68 -67q-41 -50 -83.5 -88.5t-74.5 -62.5t-71.5 -41t-61.5 -24.5 t-57 -11.5t-45 -4h-39q-131 0 -236 65.5t-178 182.5q-107 -123 -221 -185.5t-223 -62.5q-16 0 -37.5 3t-58.5 12t-70 30t-64.5 52t-50 83t-18.5 117q0 46 9 86.5t35.5 85.5t69 80t114 64.5t165.5 44.5q235 35 295 51v154q0 21 -2 42t-12 53t-26 55.5t-48 41t-74 17.5 q-37 0 -83 -10.5t-84 -23.5t-89 -35.5t-77 -36t-70.5 -37t-49.5 -25.5l-61 94q312 178 539 178zM127 973zM403 80q114 -7 232.5 64.5t198.5 170.5q-31 97 -31 256q-126 -21 -285 -45q-91 -14 -152 -40.5t-90.5 -62.5t-40 -71t-10.5 -80q0 -46 15.5 -82.5t36.5 -56t48 -32 t45 -16.5t33 -5zM1264 1040q-127 0 -212 -90.5t-128 -240.5h665q-7 44 -20 86.5t-39 88t-61 79t-88 55.5t-117 22zM1110 1548h135l-301 -266h-74z" />
<glyph unicode="&#x237;" horiz-adv-x="421" d="M106 1126h113v-1239q0 -169 -70.5 -291.5t-166.5 -168.5l-39 122q67 30 115 126.5t48 211.5v1239z" />
<glyph unicode="&#x2c6;" horiz-adv-x="987" d="M446 1548h109l283 -266h-117l-221 215l-219 -215h-117q281 265 282 266z" />
<glyph unicode="&#x2c7;" horiz-adv-x="987" d="M555 1272h-109l-282 264h117l219 -213q112 112 221 213h117q-62 -56 -154.5 -143t-128.5 -121z" />
<glyph unicode="&#x2d8;" horiz-adv-x="858" d="M442 1282q-116 0 -199.5 71.5t-105.5 180.5h76q14 -74 77 -126t152 -52q78 0 137.5 52.5t77.5 125.5h74q-19 -111 -97.5 -181.5t-191.5 -70.5zM137 1534z" />
<glyph unicode="&#x2d9;" horiz-adv-x="362" d="M106 1491q0 36 22.5 58t55.5 22t54.5 -22t21.5 -58q0 -37 -21.5 -59.5t-54.5 -22.5t-55.5 22.5t-22.5 59.5z" />
<glyph unicode="&#x2da;" horiz-adv-x="618" d="M133 1417q0 70 54.5 120t129.5 50q73 0 125 -49.5t52 -120.5q0 -72 -52 -123t-125 -51q-75 0 -129.5 51t-54.5 123zM201 1417q0 -43 34.5 -73.5t81.5 -30.5q43 0 76 31t33 73q0 40 -33 71.5t-76 31.5q-47 0 -81.5 -31.5t-34.5 -71.5z" />
<glyph unicode="&#x2db;" horiz-adv-x="622" d="M147 -166q0 103 140 223q3 -3 11.5 -9t10.5 -7q-13 -13 -31.5 -34t-49.5 -75t-31 -94q0 -45 37 -69.5t81 -24.5q69 0 119 41l45 -39q-74 -74 -164 -74q-63 0 -115.5 43t-52.5 119z" />
<glyph unicode="&#x2dc;" horiz-adv-x="1071" d="M909 1444l31 -58q-4 -4 -11 -10t-28.5 -21.5t-43.5 -27.5t-53.5 -22.5t-60.5 -12.5q-46 -3 -100 12.5t-96.5 36t-99 37t-105.5 15.5q-100 -5 -166 -58q-7 15 -16 30.5t-15 27.5q4 4 11 10t28.5 21.5t43.5 27.5t53.5 22.5t60.5 12.5q56 4 125.5 -21t142 -52t133.5 -25 q108 5 166 55z" />
<glyph unicode="&#x2dd;" horiz-adv-x="976" d="M397 1548h135l-301 -266h-73zM688 1548h133l-299 -266h-73z" />
<glyph unicode="&#x1e80;" horiz-adv-x="1970" d="M612 0h-104q-75 265 -223.5 788.5t-223.5 788.5h127l373 -1397q32 125 367 1397h139l369 -1397q144 523 376 1397h123q-83 -302 -237 -842.5t-209 -734.5h-105q-52 185 -178 655.5t-209 763.5zM657 1976h136l239 -266h-74z" />
<glyph unicode="&#x1e81;" horiz-adv-x="1562" d="M504 0h-117l-326 1126h125l267 -987l276 987h115l280 -987q250 922 287 987h113q-25 -25 -110 -306.5t-158 -550.5l-72 -269h-111l-287 991q-102 -368 -282 -991zM434 1548h135l240 -266h-74z" />
<glyph unicode="&#x1e82;" horiz-adv-x="1970" d="M612 0h-104q-75 265 -223.5 788.5t-223.5 788.5h127l373 -1397q32 125 367 1397h139l369 -1397q144 523 376 1397h123q-83 -302 -237 -842.5t-209 -734.5h-105q-52 185 -178 655.5t-209 763.5zM1190 1978h135l-301 -266h-74z" />
<glyph unicode="&#x1e83;" horiz-adv-x="1562" d="M504 0h-117l-326 1126h125l267 -987l276 987h115l280 -987q250 922 287 987h113q-25 -25 -110 -306.5t-158 -550.5l-72 -269h-111l-287 991q-102 -368 -282 -991zM981 1548h135l-301 -266h-74z" />
<glyph unicode="&#x1e84;" horiz-adv-x="1970" d="M612 0h-104q-75 265 -223.5 788.5t-223.5 788.5h127l373 -1397q32 125 367 1397h139l369 -1397q144 523 376 1397h123q-83 -302 -237 -842.5t-209 -734.5h-105q-52 185 -178 655.5t-209 763.5zM702 1800q0 36 22.5 59t55.5 23t54.5 -23t21.5 -59t-21.5 -59t-54.5 -23 t-55.5 23t-22.5 59zM1126 1800q0 36 22 59t56 23q33 0 54.5 -23t21.5 -59t-21.5 -59t-54.5 -23q-34 0 -56 23t-22 59z" />
<glyph unicode="&#x1e85;" horiz-adv-x="1562" d="M504 0h-117l-326 1126h125l267 -987l276 987h115l280 -987q250 922 287 987h113q-25 -25 -110 -306.5t-158 -550.5l-72 -269h-111l-287 991q-102 -368 -282 -991zM498 1370q0 36 22 59t55 23t54.5 -23t21.5 -59t-21.5 -59t-54.5 -23t-55 23t-22 59zM922 1370 q0 37 21.5 59.5t55.5 22.5q33 0 54.5 -23t21.5 -59t-21.5 -59t-54.5 -23q-34 0 -55.5 22.5t-21.5 59.5z" />
<glyph unicode="&#x1ef2;" horiz-adv-x="1230" d="M1065 1577h139l-518 -817v-760h-121v760l-520 817h148l434 -682zM307 1976h135l240 -266h-74z" />
<glyph unicode="&#x1ef3;" horiz-adv-x="1021" d="M53 1126h121l342 -882q337 827 383 882h131q-44 -58 -144.5 -289t-387.5 -933q-33 -84 -55.5 -135t-63.5 -118t-88 -112q-113 -108 -258 -121l-29 113q81 9 126 32.5t83 61.5h-2q47 45 85.5 108.5t94.5 200.5l62 152zM211 1548h135l240 -266h-74z" />
<glyph unicode="&#x2000;" horiz-adv-x="1022" />
<glyph unicode="&#x2001;" horiz-adv-x="2044" />
<glyph unicode="&#x2002;" horiz-adv-x="1022" />
<glyph unicode="&#x2003;" horiz-adv-x="2044" />
<glyph unicode="&#x2004;" horiz-adv-x="681" />
<glyph unicode="&#x2005;" horiz-adv-x="511" />
<glyph unicode="&#x2006;" horiz-adv-x="340" />
<glyph unicode="&#x2007;" horiz-adv-x="340" />
<glyph unicode="&#x2008;" horiz-adv-x="255" />
<glyph unicode="&#x2009;" horiz-adv-x="408" />
<glyph unicode="&#x200a;" horiz-adv-x="113" />
<glyph unicode="&#x2010;" horiz-adv-x="675" d="M559 610v-106h-432v106h432z" />
<glyph unicode="&#x2011;" horiz-adv-x="675" d="M559 610v-106h-432v106h432z" />
<glyph unicode="&#x2012;" horiz-adv-x="675" d="M559 610v-106h-432v106h432z" />
<glyph unicode="&#x2013;" horiz-adv-x="1320" d="M1217 606v-96h-1096v96h1096z" />
<glyph unicode="&#x2014;" horiz-adv-x="1587" d="M1489 606v-96h-1368v96h1368z" />
<glyph unicode="&#x2018;" horiz-adv-x="391" d="M291 1266q0 -41 -25.5 -69t-62.5 -28q-47 0 -72 42.5t-25 109.5q1 73 31.5 136t93.5 149l45 -25q-8 -10 -31.5 -40t-30.5 -41.5t-21.5 -36t-21 -48t-11.5 -53.5q58 0 94.5 -28t36.5 -68z" />
<glyph unicode="&#x2019;" horiz-adv-x="391" d="M106 1481q0 39 25.5 66.5t61.5 27.5q49 0 73.5 -42.5t24.5 -109.5q-1 -72 -31.5 -135.5t-93.5 -148.5q-9 5 -24.5 12.5t-22.5 11.5q9 11 27.5 34.5t26.5 33.5t21 30.5t19.5 36t13.5 38t11 48.5q-58 0 -95 27.5t-37 69.5z" />
<glyph unicode="&#x201c;" horiz-adv-x="741" d="M287 1266q0 -41 -24.5 -69t-61.5 -28q-49 0 -73 42.5t-24 109.5q1 73 31.5 136t93.5 149l45 -25q-6 -8 -27 -34.5t-26.5 -34t-20 -29.5t-19.5 -36t-12 -37t-11 -48q57 0 93 -27.5t36 -68.5zM647 1266q0 -41 -25 -69t-61 -28q-48 0 -72 42t-24 110q1 74 31 137.5t92 147.5 l47 -25q-8 -10 -27.5 -34.5t-26.5 -33.5t-20.5 -30t-19.5 -36t-13.5 -37.5t-11.5 -47.5q58 0 94.5 -28t36.5 -68z" />
<glyph unicode="&#x201d;" horiz-adv-x="741" d="M465 1481q0 40 24.5 67t61.5 27q48 0 72 -42t24 -110q-1 -72 -31.5 -135.5t-93.5 -148.5q-7 4 -22.5 11.5t-22.5 12.5q7 9 27.5 34.5t26.5 34t20 30t19.5 36t12.5 37.5t11 49q-58 0 -93.5 27.5t-35.5 69.5zM104 1481q0 39 25 66.5t61 27.5q49 0 73 -42.5t24 -109.5 q-1 -73 -31 -136.5t-92 -147.5l-24 12t-23 12q9 11 27.5 34.5t26.5 33.5t21 30.5t19.5 36t13.5 38t11 48.5q-58 0 -95 27.5t-37 69.5z" />
<glyph unicode="&#x2022;" horiz-adv-x="663" d="M127 479q0 93 61 155t152 62q89 0 148 -61.5t59 -155.5q0 -97 -59 -161t-148 -64q-91 0 -152 64t-61 161z" />
<glyph unicode="&#x2026;" horiz-adv-x="1228" d="M100 96q0 46 30 77.5t73 31.5q40 0 68 -31.5t28 -77.5q0 -47 -28 -78.5t-68 -31.5q-43 0 -73 31.5t-30 78.5zM524 96q0 46 29 77.5t72 31.5q41 0 68.5 -31.5t27.5 -77.5q0 -47 -27.5 -78.5t-68.5 -31.5q-43 0 -72 31.5t-29 78.5zM946 96q0 45 29.5 77t71.5 32 q41 0 69.5 -31.5t28.5 -77.5q0 -47 -28.5 -78.5t-69.5 -31.5q-42 0 -71.5 31.5t-29.5 78.5z" />
<glyph unicode="&#x202f;" horiz-adv-x="408" />
<glyph unicode="&#x205f;" horiz-adv-x="511" />
<glyph unicode="&#x2122;" horiz-adv-x="1712" d="M932 821h-84v713h90l252 -551l-2 6l18 -71h60q2 9 9 34t9 37l-2 -6q156 354 246 551h88v-713h-86v498l-62 4q-2 -10 -9 -36t-9 -36l2 4l-174 -434h-88l-180 434l4 -4l-21 72l-61 -4v-498zM119 1456v78h604v-78h-258v-635h-88v635h-258z" />
<glyph unicode="&#x2212;" horiz-adv-x="1318" d="M1214 608v-100h-1093v100h1093z" />
<glyph unicode="&#x25fc;" horiz-adv-x="1126" d="M0 1126h1126v-1126h-1126v1126z" />
<glyph horiz-adv-x="1357" d="M129 776q0 179 31 319.5t83.5 230.5t126 149t153.5 83.5t171 24.5q92 0 171 -24.5t152 -83.5t124 -149.5t81.5 -230.5t30.5 -319t-30.5 -319.5t-81.5 -231t-124 -150t-152 -84t-171 -24.5q-91 0 -171 24.5t-153.5 84t-126 150t-83.5 231t-31 319.5zM1130 776 q0 179 -32.5 313t-91.5 214.5t-137 119.5t-175 39q-75 0 -139.5 -24t-120.5 -77t-95.5 -132t-62 -194.5t-22.5 -258.5t23.5 -258t64.5 -192.5t97.5 -129.5t120 -75t134.5 -23q92 0 168.5 38t137.5 116.5t95.5 212t34.5 311.5z" />
<glyph horiz-adv-x="714" d="M545 0h-125v1434q-159 -135 -219 -185l-80 92q30 23 89 66.5t103 77t86 67.5h146v-1552z" />
<glyph horiz-adv-x="1069" d="M526 1462q-60 -1 -113.5 -20t-93 -51t-64 -58.5t-44.5 -56.5l-74 72q26 42 59 78.5t80.5 74t112.5 59.5t139 23q176 0 288 -100t112 -275q0 -71 -46.5 -181.5t-111 -218t-162.5 -246t-170.5 -232.5t-165.5 -211h697v-119h-858v109q15 17 40 46.5t98.5 119t140 176 t147.5 201t139.5 211t98.5 189.5t40 152q0 121 -87.5 190.5t-201.5 67.5zM190 1239l52 6l-31 31z" />
<glyph horiz-adv-x="1083" d="M188 1333l-61 58q6 8 16.5 21t46 46t72.5 58t92.5 46t110.5 21q133 0 229.5 -88.5t96.5 -222.5q0 -151 -213 -320q164 -22 278.5 -128.5t118.5 -256.5q0 -119 -37 -220t-97 -169.5t-136.5 -117.5t-154 -71t-151.5 -22q-156 -2 -313 109l76 76q13 -7 35.5 -16.5t85 -25.5 t116.5 -14q58 0 120 17t124 55t111 91t79.5 133.5t30.5 174.5q0 108 -87 193.5t-202 85.5q-137 0 -268 -41v100q81 32 144 66t117 78.5t83 101t29 121.5q0 83 -63 134.5t-150 51.5q-183 0 -279 -125zM274 793l33 -21v33l-18 -6z" />
<glyph horiz-adv-x="1243" d="M1200 510v-119h-223v-391h-125v391h-774v74l821 1087h78v-1042h223zM324 510h528v825l-567 -768l-78 -75z" />
<glyph horiz-adv-x="1191" d="M319 1434v-476q77 35 138.5 53.5t130.5 18.5q232 0 359.5 -127t127.5 -330q0 -157 -38 -275.5t-107.5 -189.5t-160.5 -106t-204 -35q-78 0 -150.5 19t-124.5 49t-82 52t-50 42q13 16 34.5 45.5t32.5 42.5q7 -5 19.5 -14.5t51.5 -32.5t77.5 -41t91.5 -32.5t100 -14.5 q85 0 156.5 28.5t127 85.5t87 152.5t31.5 220.5q0 61 -23.5 121t-68.5 112t-120 84t-167 32q-176 0 -293 -76h-98v710h757v-118h-635z" />
<glyph horiz-adv-x="1216" d="M696 938q87 0 158.5 -24.5t130 -76t91 -142t32.5 -212.5q0 -61 -14 -127t-48.5 -136.5t-85 -126t-132.5 -91t-183 -35.5q-242 0 -374 193.5t-132 550.5q0 174 43 334t117.5 278.5t181.5 189t228 70.5q165 0 327 -119q-12 -14 -25 -27t-29 -28t-24 -23q-15 8 -39.5 20 t-88.5 32t-113 20q-101 0 -183.5 -60.5t-134.5 -154.5t-88 -215t-51.5 -233.5t-17.5 -219.5q233 363 454 363zM645 80q76 0 138 28t100.5 71.5t64.5 98.5t36.5 106.5t10.5 98.5q0 93 -23.5 160.5t-66.5 106t-94.5 56t-114.5 17.5q-53 0 -105 -17t-108.5 -56.5t-113 -113.5 t-105.5 -177q35 -182 134 -280.5t247 -98.5z" />
<glyph horiz-adv-x="1007" d="M104 1417v135h854v-100q-74 -156 -179.5 -361.5t-235.5 -445t-249 -422.5t-183 -227l-86 80q71 54 226 305.5t303.5 528t260.5 507.5h-711z" />
<glyph horiz-adv-x="1163" d="M1004 1255q0 -74 -34 -146t-90.5 -130.5t-107.5 -99t-106 -74.5q82 -58 141.5 -107t117 -110t87.5 -126.5t30 -133.5q0 -75 -23 -135t-56.5 -97t-83 -64t-89 -39t-88.5 -18.5t-68.5 -7t-40.5 -0.5h-3h-2q-19 0 -38 0.5t-67 7.5t-88.5 19t-89.5 39t-83 63.5t-57.5 96.5 t-23.5 135q1 75 33.5 149.5t84.5 135t106.5 107.5t113.5 83q-139 114 -218 223.5t-79 228.5q0 89 36 155t96.5 102.5t129.5 53.5t146 17q78 0 148 -17t131.5 -53.5t98 -102.5t36.5 -155zM930 328q0 48 -29 100.5t-86.5 109t-116 104t-143.5 110.5q-119 -75 -207 -184.5 t-98 -239.5q0 -54 19 -96.5t44.5 -68.5t65.5 -45t68.5 -27t68 -12.5t49 -4.5h25.5h2q16 0 31.5 0.5t52 5t66 13t66.5 27.5t62 45t42.5 68t17.5 95zM565 879l35 -2q39 20 82 51.5t93 79.5t82 113.5t32 133.5q0 66 -26 113.5t-71 72t-94.5 35.5t-107.5 11q-45 0 -84.5 -6.5 t-79.5 -22.5t-68.5 -41.5t-46.5 -67t-18 -94.5q0 -51 21 -100.5t63 -98.5t83.5 -87t104.5 -90z" />
<glyph horiz-adv-x="1216" d="M543 614q-87 0 -158.5 24.5t-130 76t-91 142t-32.5 212.5q0 61 14 126t48.5 135.5t85 126t132.5 91t183 35.5q242 0 374 -192.5t132 -548.5q0 -174 -43 -334t-117.5 -279.5t-181.5 -190.5t-228 -71q-163 0 -327 121q15 15 41 40t39 38q14 -8 38 -20t87.5 -32t113.5 -20 q101 0 183.5 60.5t134.5 154t88 214.5t51.5 233t17.5 219q-232 -361 -454 -361zM594 1470q-76 0 -137.5 -28t-100 -71t-65 -98t-37 -106t-10.5 -98q0 -93 24 -161t67 -106t94.5 -55.5t113.5 -17.5q54 0 106 17t109 56t113 113t104 177q-35 183 -133.5 280.5t-247.5 97.5z " />
</font>
</defs>
</svg>
