<?xml version="1.0" standalone="no"?>
<!DOCTYPE svg PUBLIC "-//W3C//DTD SVG 1.1//EN" "http://www.w3.org/Graphics/SVG/1.1/DTD/svg11.dtd" >
<svg xmlns="http://www.w3.org/2000/svg">
<metadata></metadata>
<defs>
<font id="junctionregular" horiz-adv-x="1236" >
<font-face units-per-em="2048" ascent="1536" descent="-512" />
<missing-glyph horiz-adv-x="532" />
<glyph unicode="ff" horiz-adv-x="1335" d="M926 1323v-197h331v-143h-331v-983h-170v983h-385v-983h-170v983h-146v143h146v197q0 367 317 367q129 0 309 -103q83 103 246 103q72 0 161.5 -33t142.5 -65l53 -33l-105 -105q-16 10 -43.5 25.5t-94.5 41t-114 25.5q-40 0 -67.5 -12t-42.5 -29.5t-23.5 -50t-10.5 -59.5 t-3 -72zM371 1323v-197h385v197q0 69 12 131q-14 9 -45.5 26.5t-95.5 41.5t-109 24q-40 0 -67.5 -12t-42.5 -29.5t-23.5 -50t-10.5 -59.5t-3 -72z" />
<glyph unicode="fi" horiz-adv-x="1187" d="M381 1323v-197h635v-1126h-170v983h-465v-983h-170v983h-145v143h145v197q0 168 81.5 267.5t250.5 99.5q60 0 128 -19t122.5 -46t100.5 -53.5t72 -45.5l25 -19l-104 -104q-8 6 -23 15.5t-58 34t-83 43.5t-90 34.5t-88 15.5q-50 0 -83 -16.5t-50 -49t-23.5 -69t-7.5 -88.5 z" />
<glyph unicode="fl" horiz-adv-x="1263" d="M866 1679h170v-1380q0 -108 27 -135q43 -43 131 -43l-6 -146q-180 0 -250 70q-25 25 -41 57t-22 70.5t-7.5 62.5t-1.5 64v1380zM381 1323v-197h332v-143h-332v-983h-170v983h-145v143h145v197q0 367 317 367q108 0 252 -72v-164q-16 10 -43.5 25.5t-94.5 41t-114 25.5 q-40 0 -67.5 -12t-42.5 -29.5t-23.5 -50t-10.5 -59.5t-3 -72z" />
<glyph unicode="ffi" horiz-adv-x="1742" d="M936 1323v-197h635v-1126h-170v983h-465v-983h-170v983h-385v-983h-170v983h-145v143h145v197q0 367 317 367q135 0 316 -107q86 107 254 107q60 0 128 -19t122.5 -46t100.5 -53.5t71 -45.5l26 -19l-104 -104q-8 6 -23 15.5t-58 34t-83 43.5t-90 34.5t-88 15.5 q-50 0 -83 -16.5t-50 -49t-23.5 -69t-7.5 -88.5zM381 1323v-197h385v197q0 74 14 131q-16 10 -43.5 25.5t-94.5 41t-114 25.5q-40 0 -67.5 -12t-42.5 -29.5t-23.5 -50t-10.5 -59.5t-3 -72z" />
<glyph unicode="ffl" horiz-adv-x="1818" d="M1421 1679h170v-1380q0 -108 27 -135q43 -43 131 -43l-6 -146q-180 0 -250 70q-25 25 -41 57t-22 70.5t-7.5 62.5t-1.5 64v1380zM936 1323v-197h332v-143h-332v-983h-170v983h-385v-983h-170v983h-145v143h145v197q0 367 317 367q130 0 310 -103q83 103 245 103 q108 0 252 -72v-164q-16 10 -43.5 25.5t-94.5 41t-114 25.5q-40 0 -67.5 -12t-42.5 -29.5t-23.5 -50t-10.5 -59.5t-3 -72zM381 1323v-197h385v197q0 69 12 131q-14 9 -45.5 26.5t-95.5 41.5t-109 24q-40 0 -67.5 -12t-42.5 -29.5t-23.5 -50t-10.5 -59.5t-3 -72z" />
<glyph unicode="fj" horiz-adv-x="1187" d="M381 1323v-197h635v-1214q0 -179 -87.5 -308.5t-193.5 -166.5l-51 162q62 8 112 101t50 212v1071h-465v-983h-170v983h-145v143h145v197q0 168 81.5 267.5t250.5 99.5q60 0 128 -19t122.5 -46t100.5 -53.5t72 -45.5l25 -19l-104 -104q-8 6 -23 15.5t-58 34t-83 43.5 t-90 34.5t-88 15.5q-50 0 -83 -16.5t-50 -49t-23.5 -69t-7.5 -88.5z" />
<glyph unicode=" "  horiz-adv-x="532" />
<glyph unicode="&#x09;" horiz-adv-x="532" />
<glyph unicode="&#xa0;" horiz-adv-x="532" />
<glyph unicode="!" horiz-adv-x="598" d="M373 377h-150l-26 1302h202zM172 115q0 54 36.5 89.5t92.5 35.5q54 0 89.5 -35.5t35.5 -89.5q0 -56 -35.5 -92.5t-89.5 -36.5q-55 0 -92 37t-37 92z" />
<glyph unicode="&#x22;" horiz-adv-x="770" d="M440 1462q0 49 32.5 81t82.5 32q63 0 94 -46.5t31 -121.5q-1 -84 -38.5 -176t-102.5 -172l-95 51q102 128 119 238q-55 0 -89 32t-34 82zM90 1462q0 49 32.5 81t82.5 32q63 0 94 -46.5t31 -121.5q-1 -84 -39 -176t-103 -172l-94 51q102 128 119 238q-55 0 -89 32t-34 82z " />
<glyph unicode="#" horiz-adv-x="1685" d="M193 999l34 148h351l106 430h152l-107 -430h361l106 430h152l-107 -430h365l-35 -148h-367l-88 -362h377l-35 -148h-379l-118 -489h-152l119 489h-361l-118 -489h-152l119 489h-336l35 148h338l88 362h-348zM692 999l-88 -362h361l88 362h-361z" />
<glyph unicode="$" horiz-adv-x="1265" d="M578 -137v108q-155 19 -267.5 91.5t-199.5 211.5l127 113q134 -217 340 -252v613q-75 25 -128 47t-110.5 58.5t-92 78.5t-56.5 104t-21 138q1 97 29.5 173.5t70.5 122t99 76.5t106.5 44t102.5 18v116h139v-120q110 -13 193.5 -60t154.5 -131l-123 -104q-104 109 -225 129 v-545q77 -25 134.5 -49.5t120 -65t102 -87.5t65.5 -117t26 -154q0 -104 -35.5 -188t-98 -138.5t-142 -86.5t-172.5 -40v-104h-139zM989 420q0 59 -20.5 105t-60.5 79t-84.5 56t-106.5 45v-574q121 14 196.5 88.5t75.5 200.5zM346 1174q-4 -87 57.5 -141.5t174.5 -94.5v504 q-41 -5 -76.5 -19.5t-71.5 -43.5t-58.5 -81.5t-25.5 -123.5z" />
<glyph unicode="%" horiz-adv-x="2050" d="M121 1167q1 96 24.5 171.5t61 122.5t89 78t103.5 43t109 13q58 0 110.5 -12t104.5 -43t89.5 -78.5t61 -124t23.5 -174.5q-1 -96 -24.5 -171.5t-61 -122.5t-89 -77.5t-103.5 -42.5t-109 -12t-109 12.5t-104.5 43.5t-90.5 78t-61.5 123.5t-23.5 172.5zM1516 1667h196 l-1188 -1763h-196zM508 1460q-36 -1 -64.5 -8t-57.5 -26t-48 -50.5t-31 -84.5t-12 -124q0 -88 17.5 -149t50 -91.5t67.5 -42.5t80 -12q36 0 64.5 6.5t57 26t47.5 50.5t31 84t13 124q0 73 -12 127t-31.5 86t-48.5 51.5t-58 26t-65 6.5zM1153 399q1 96 24.5 171.5t61 122.5 t89 78t103.5 43t109 13q58 0 110.5 -12t104.5 -43t89.5 -78.5t61 -124t23.5 -174.5q-1 -96 -24.5 -171.5t-61 -122.5t-89 -77.5t-103.5 -42.5t-109 -12t-109 12.5t-104.5 43.5t-90.5 78t-61.5 123.5t-23.5 172.5zM1540 692q-36 -1 -64.5 -8t-57.5 -26t-48 -50.5t-31 -84.5 t-12 -124q0 -88 17.5 -149t50 -91.5t67.5 -42.5t80 -12q36 0 64.5 6.5t57 26t47.5 50.5t31 84t13 124q0 73 -12 127t-31.5 86t-48.5 51.5t-58 26t-65 6.5z" />
<glyph unicode="&#x26;" horiz-adv-x="1810" d="M121 410q0 78 27.5 145.5t81.5 123t112.5 97.5t140.5 88q-105 115 -158 203t-53 174q0 74 26 133t68 96t99.5 62t117 35t124.5 10t123.5 -10t115 -34.5t97 -62t65.5 -96.5t25 -133q0 -52 -22.5 -100t-56.5 -85.5t-90 -77.5t-106.5 -68.5t-122.5 -65.5q200 -222 377 -404 q31 48 57 97.5t66.5 133.5t52.5 109l133 -65q-17 -34 -61 -124.5t-75.5 -150t-63.5 -112.5q73 -72 133.5 -120.5t77.5 -53.5q39 -12 74.5 10.5t70.5 103.5l123 -71q-27 -62 -57 -105.5t-57 -64t-55 -32t-52 -9.5t-47 4q-42 6 -125.5 61.5t-180.5 145.5q-184 -211 -491 -211 q-66 0 -134.5 14t-137.5 46.5t-122 80t-86.5 121t-33.5 162.5zM580 764q-64 -35 -111.5 -69t-89.5 -77.5t-64 -96t-22 -111.5q0 -52 26.5 -96.5t66.5 -73.5t88 -49.5t89.5 -29.5t71.5 -9q223 3 377 157q-96 96 -432 455zM961 1241q0 58 -22 100.5t-59.5 65t-80.5 33 t-92 10.5q-50 0 -93.5 -10.5t-83.5 -33t-63 -65t-23 -100.5q0 -52 49.5 -123t145.5 -172q75 38 122.5 65.5t98.5 66t76 79t25 84.5z" />
<glyph unicode="'" horiz-adv-x="419" d="M90 1464q0 49 32.5 81t82.5 32q63 0 94 -46.5t31 -121.5q-1 -84 -39 -176t-103 -172l-94 51q102 128 119 238q-55 0 -89 32t-34 82z" />
<glyph unicode="(" horiz-adv-x="688" d="M616 1577l13 -143q-78 -27 -139 -108t-97 -181t-59.5 -221t-32 -219.5t-8.5 -184.5t8.5 -184t32 -218.5t59.5 -221t97 -180.5t139 -107l-13 -144q-81 8 -151 56t-119.5 119t-89 164t-64.5 188.5t-41.5 195.5t-23 181.5t-6.5 150.5q0 68 6.5 150t23.5 182.5t41.5 197 t64.5 190t89.5 165t119 118.5t150.5 54z" />
<glyph unicode=")" horiz-adv-x="688" d="M59 1434l13 143q81 -7 150.5 -54t119 -118.5t89.5 -165t64.5 -190t41.5 -197t23.5 -182.5t6.5 -150q0 -69 -6.5 -150.5t-23 -181.5t-41.5 -195.5t-64.5 -188.5t-89 -164t-119.5 -119t-151 -56l-13 144q78 27 139 107t97 180.5t59.5 221t32 218.5t8.5 184t-8.5 184.5 t-32 219.5t-59.5 221t-97 181t-139 108z" />
<glyph unicode="*" horiz-adv-x="1261" d="M98 1161l52 133l413 -166l-4 449h143l-4 -449l414 166l51 -133l-424 -166l295 -327l-119 -101l-284 353l-283 -353l-123 101l295 327z" />
<glyph unicode="+" horiz-adv-x="1327" d="M721 0h-137v496h-484v137h484v493h137v-493h506v-137h-506v-496z" />
<glyph unicode="," horiz-adv-x="409" d="M80 100q0 49 32.5 81t82.5 32q63 0 93.5 -46.5t30.5 -121.5q-1 -84 -38.5 -176t-102.5 -172l-94 51q102 128 119 238q-55 0 -89 32t-34 82z" />
<glyph unicode="-" horiz-adv-x="704" d="M594 635v-143h-483v143h483z" />
<glyph unicode="." horiz-adv-x="419" d="M90 109q0 51 34.5 83.5t88.5 32.5q51 0 84 -32.5t33 -83.5q0 -54 -33 -88.5t-84 -34.5q-54 0 -88.5 34.5t-34.5 88.5z" />
<glyph unicode="/" horiz-adv-x="720" d="M512 1577h170l-473 -1577h-170z" />
<glyph unicode="0" horiz-adv-x="1386" d="M121 768q0 177 31.5 316t85 228.5t128.5 148t156 82.5t174 24t173.5 -24t155 -82.5t127 -148t83.5 -228.5t31 -316t-31 -316t-83.5 -228.5t-127 -148t-155 -82.5t-173.5 -24t-174 24t-156 82.5t-128.5 148t-85 228.5t-31.5 316zM1085 768q0 328 -105.5 484.5 t-283.5 156.5q-85 0 -154.5 -36.5t-124.5 -111t-85.5 -200.5t-30.5 -293q0 -165 32 -290.5t88 -198.5t125 -108.5t150 -35.5t149.5 35.5t123 108.5t85.5 198t31 291z" />
<glyph unicode="1" horiz-adv-x="743" d="M575 0h-182v1341l-182 -153l-111 127l293 221h182v-1536z" />
<glyph unicode="2" horiz-adv-x="1097" d="M233 1206q-110 111 -110 113q26 43 58.5 81t82 78t119 64t149.5 25q182 0 299 -102t117 -279q0 -71 -43.5 -177t-103 -207t-152 -232.5t-158 -217t-153.5 -196.5h649v-156h-887v131l38.5 44t95 113t134.5 167t142 192t134.5 202.5t95 183t38.5 149.5q0 55 -21.5 99.5 t-57 72t-79.5 42t-90 13.5q-56 -1 -107 -22t-84 -50.5t-58 -59.5t-37 -51z" />
<glyph unicode="3" horiz-adv-x="1112" d="M209 1264l-96 94q4 8 13 22.5t41 50.5t70 63.5t101 50t133 22.5q141 0 242.5 -92t101.5 -230q0 -149 -180 -293q147 -19 250.5 -126.5t107.5 -258.5q0 -119 -37.5 -220t-98.5 -169t-138.5 -116.5t-156.5 -70.5t-154 -22q-55 -1 -109.5 12t-94 31.5t-71 37t-47.5 31.5 l-16 13l108 103q3 -3 9.5 -7.5t28 -16.5t46 -20.5t64 -15t82.5 -4.5q52 0 108 16t111.5 50.5t99 84t71 123t27.5 160.5q0 96 -74 172t-173 76q-64 0 -136 -13.5t-112 -25.5l-41 -12v139q78 29 137.5 60.5t112 73t80.5 94.5t28 114q0 71 -52 115.5t-122 44.5 q-53 0 -99.5 -14.5t-75 -35.5t-50 -41.5t-30.5 -35.5z" />
<glyph unicode="4" horiz-adv-x="1271" d="M1212 532v-155h-215v-377h-182v377h-745v96l802 1063h125v-1004h215zM334 532h481v689l-491 -666l-29 -29v-2z" />
<glyph unicode="5" horiz-adv-x="1220" d="M365 1382v-401q116 53 227 53q239 0 369.5 -128t130.5 -333q0 -157 -39 -275t-110 -189t-164.5 -105.5t-209.5 -34.5q-75 0 -146.5 18t-120.5 44t-87 52t-56 44l-18 18l99 121q6 -6 17 -15.5t46 -34.5t71.5 -44.5t90 -35t104.5 -15.5q76 0 139.5 26t113 78.5t77 140.5 t27.5 203q0 55 -21 109.5t-60.5 101.5t-105.5 76t-147 29q-163 0 -273 -74h-135v725h791v-154h-610z" />
<glyph unicode="6" horiz-adv-x="1245" d="M696 944q71 0 132.5 -15t116.5 -49t94.5 -86t62 -131t22.5 -178q0 -61 -14.5 -127t-50 -136.5t-88 -126t-136.5 -91t-188 -35.5q-248 0 -383 191.5t-135 544.5q0 230 74 427.5t208 316t298 118.5q173 0 352 -133l-109 -113q-4 3 -11.5 9t-31.5 20.5t-50 25.5t-65 20 t-77 9q-90 0 -164 -50t-120.5 -127t-79 -177t-46.5 -192.5t-16 -180.5q172 266 405 266zM647 119q67 0 121 25.5t88 65t57 89.5t32 96.5t9 89.5q0 84 -20.5 145.5t-57.5 96t-81.5 50.5t-98.5 16q-46 0 -91.5 -15.5t-96 -51.5t-101 -103.5t-94.5 -161.5q32 -165 118.5 -253.5 t215.5 -88.5z" />
<glyph unicode="7" horiz-adv-x="1036" d="M92 1366v170h885v-121q-72 -152 -181 -362.5t-240.5 -449t-251.5 -414t-179 -201.5l-117 108q59 36 208 272.5t297 508t255 489.5h-676z" />
<glyph unicode="8" horiz-adv-x="1191" d="M1022 1231q0 -60 -22 -119.5t-54.5 -105t-77 -88.5t-82 -71t-77.5 -52q78 -55 132.5 -100.5t109 -104.5t82.5 -123t28 -131q0 -76 -24 -137.5t-58.5 -99t-85.5 -64.5t-91.5 -39.5t-91.5 -19t-70.5 -7t-41.5 -0.5h-4h-23t-44.5 3t-64 8t-71 17.5t-76.5 29.5t-68.5 45.5 t-60.5 64t-39 87t-16 112.5q1 61 21 121t51.5 109t73.5 94t83 78t84 59q-274 218 -274 434q0 74 25 132.5t66 96t97 62t114.5 35t121.5 10.5t122 -10.5t115.5 -35t98 -62t67 -96.5t25.5 -132zM891 336q0 44 -25.5 91.5t-77 98.5t-103 93t-128.5 98q-63 -40 -115.5 -90.5 t-95.5 -128.5t-49 -162q0 -47 16.5 -85t38.5 -60.5t57.5 -39t60 -23.5t59.5 -11t42.5 -4h22.5h2q14 0 27 0.5t45 4.5t58 11.5t58.5 24t54.5 39t37 60t15 83.5zM588 883q37 19 75.5 47.5t83.5 72.5t74 104t29 124q0 57 -22 98.5t-60.5 63.5t-81 31.5t-92.5 9.5 q-49 0 -91.5 -9.5t-81 -31.5t-61 -63.5t-22.5 -98.5q0 -62 38 -126.5t86.5 -111.5t125.5 -110z" />
<glyph unicode="9" horiz-adv-x="1245" d="M549 592q-71 0 -132.5 15t-116.5 49t-94.5 86t-62 131t-22.5 178q0 61 14.5 127t50 136.5t88 126t136.5 91t188 35.5q248 0 383 -191.5t135 -544.5q0 -230 -73.5 -427t-207.5 -316t-298 -119q-174 0 -353 133l109 113q4 -3 11.5 -9t31.5 -20.5t50 -25.5t65 -20t77 -9 q90 0 164 50t120.5 127t79 177t46.5 192.5t16 180.5q-172 -266 -405 -266zM598 1417q-67 0 -121 -25.5t-88 -65t-57 -89.5t-32 -96.5t-9 -89.5q0 -84 20.5 -145.5t57.5 -96t81.5 -50.5t98.5 -16q46 0 91.5 15.5t96 51.5t101 103.5t94.5 161.5q-32 165 -118.5 253.5 t-215.5 88.5z" />
<glyph unicode=":" horiz-adv-x="522" d="M141 109q0 51 34.5 83.5t88.5 32.5q51 0 84 -32.5t33 -83.5q0 -54 -33 -88.5t-84 -34.5q-54 0 -88.5 34.5t-34.5 88.5zM141 846q0 51 34.5 84t88.5 33q51 0 84 -33t33 -84q0 -54 -33 -88.5t-84 -34.5q-54 0 -88.5 34.5t-34.5 88.5z" />
<glyph unicode=";" horiz-adv-x="532" d="M152 100q0 49 32 81t82 32q63 0 94 -46.5t31 -121.5q-1 -84 -38.5 -176t-102.5 -172l-94 51q101 126 118 238q-55 0 -88.5 32t-33.5 82zM141 846q0 51 34.5 84t88.5 33q51 0 84 -33t33 -84q0 -54 -33 -88.5t-84 -34.5q-54 0 -88.5 34.5t-34.5 88.5z" />
<glyph unicode="&#x3c;" horiz-adv-x="1429" d="M152 500v147l1136 514v-147l-975 -441l975 -440v-147z" />
<glyph unicode="=" horiz-adv-x="1349" d="M1239 809v-137h-1128v137h1128zM1239 481v-137h-1128v137h1128z" />
<glyph unicode="&#x3e;" horiz-adv-x="1429" d="M1278 647v-147l-1137 -514v147l973 440l-973 441v147z" />
<glyph unicode="?" horiz-adv-x="1028" d="M784 1311q0 225 -254 225q-59 0 -116 -25.5t-95.5 -61.5t-69 -72t-45.5 -61l-14 -26l-108 103q7 12 19.5 31t55.5 68.5t91.5 87t125 68.5t156.5 31q88 0 158.5 -17.5t115.5 -48.5t76.5 -67t47 -80t22 -80.5t6.5 -74.5q0 -46 -11 -91.5t-24.5 -80t-43.5 -77.5t-48.5 -66.5 t-61.5 -66t-59.5 -58t-64.5 -58.5q-80 -73 -122 -123.5t-42 -89.5q0 -46 24 -78.5t85 -85.5l-119 -98q-40 36 -60.5 57.5t-44 54.5t-33 69.5t-9.5 82.5q0 89 52.5 163t160.5 171q53 48 89 85t75.5 87t61 101t23.5 102zM397 100q0 49 32.5 81t82.5 32t81.5 -31.5t31.5 -81.5 t-32 -82t-81 -32q-50 0 -82.5 32.5t-32.5 81.5z" />
<glyph unicode="@" horiz-adv-x="2170" d="M860 39q-142 1 -209 102.5t-67 280.5q0 130 37 252t97 212.5t134 159.5t151.5 104.5t145.5 35.5q89 0 162 -34.5t135 -129.5l29 121l159 -37q-209 -928 -209 -938q4 -4 32.5 0t72 19t94.5 40.5t101 69.5t89.5 100t62.5 138.5t19 177.5q0 127 -51.5 250t-145.5 224 t-242 163.5t-324 62.5q-166 0 -324.5 -74.5t-275.5 -195t-188 -281.5t-71 -327q0 -165 70.5 -310.5t188.5 -246.5t275 -159.5t325 -58.5q91 0 153.5 7.5t144 33t169.5 80.5t196 144l102 -127q-123 -101 -224 -163t-194.5 -91.5t-167 -38t-179.5 -8.5q-202 0 -388.5 71.5 t-326.5 194t-223.5 298.5t-83.5 374q0 159 53.5 315.5t150.5 286t223 229t281 155.5t314 56q173 0 324.5 -49.5t260 -134t187 -195.5t117 -235t38.5 -250q0 -115 -29 -212.5t-75 -165t-108 -121.5t-124 -85.5t-126.5 -53t-113 -29t-85.5 -7.5q-166 0 -127 182 q-208 -185 -412 -182zM748 422q0 -121 27 -183t87 -65q63 -1 131 27t119 65.5t100.5 87.5t74 80t42.5 55l76 345q-29 71 -61 117.5t-66.5 67t-62.5 27.5t-66 7q-49 0 -104 -29t-107.5 -85.5t-95 -131t-68.5 -175.5t-26 -210z" />
<glyph unicode="A" horiz-adv-x="1449" d="M631 1577h188l582 -1577h-191l-198 537h-576l-196 -537h-191zM725 1376q-3 -55 -14 -98l-217 -586h460l-217 586q-12 47 -12 98z" />
<glyph unicode="B" horiz-adv-x="1300" d="M612 1587q114 0 198.5 -21.5t152 -71t104.5 -137.5t43 -214q-3 -223 -160 -324q68 -30 116.5 -76.5t71.5 -98t32.5 -95t9.5 -84.5q0 -30 -0.5 -49t-5.5 -59.5t-14 -69t-28 -68.5t-45 -68.5t-67.5 -59.5t-94 -49.5t-126 -30.5t-160.5 -11h-287h-180v1550q20 2 108 13 t168.5 17.5t163.5 6.5zM352 719v-563h287q74 0 132.5 12t96.5 29.5t65 46t40.5 53t20.5 59.5t8.5 56.5t1.5 52.5q0 26 -6 53.5t-27 65t-55.5 66t-99.5 49t-150 20.5h-314zM936 1147q-1 76 -19.5 130.5t-53 85.5t-75.5 46.5t-94 20.5q-121 10 -342 -17v-539h78q60 0 115 -0.5 t104.5 4.5t92 14.5t77 29.5t59.5 49t40 73.5t18 102.5z" />
<glyph unicode="C" horiz-adv-x="1314" d="M1214 1393l-118 -115q-4 6 -12 17t-38 38t-65.5 48t-95.5 38t-127 17q-86 0 -166 -44t-144.5 -127.5t-103.5 -219t-39 -302.5q0 -255 133 -431t320 -181q43 -1 84 4.5t74 16t64 24t55 29t44.5 30.5t35.5 29.5t25 25t16 16.5l5 7l113 -112q-10 -8 -37 -35.5t-51 -50.5 t-69.5 -53t-93.5 -49.5t-120.5 -32.5t-154.5 -11q-179 5 -322 105t-224 275.5t-81 393.5q0 206 53.5 373.5t143.5 273t203.5 162t238.5 56.5q68 0 129.5 -12t106 -31t82.5 -42t62.5 -45.5t41.5 -41.5t24 -31z" />
<glyph unicode="D" horiz-adv-x="1458" d="M352 0h-180v1550q295 37 424 37q76 0 141 -6.5t134.5 -22.5t126 -45t110.5 -71.5t94.5 -104.5t71.5 -141t47 -185t16 -233q0 -365 -176.5 -571.5t-466.5 -206.5h-342zM1157 778q0 122 -15.5 217.5t-54.5 180t-101.5 140t-159.5 87t-226 31.5q-46 0 -91 -3t-70.5 -6.5 t-54 -8t-32.5 -5.5v-1255h342q203 0 333 168t130 454z" />
<glyph unicode="E" horiz-adv-x="1146" d="M1067 0h-895v1577h651q59 0 113 2.5t78 4.5l24 3v-164h-686v-528h584v-156h-584v-583h500q59 0 113 2.5t78 5.5l24 2v-166z" />
<glyph unicode="F" horiz-adv-x="1101" d="M352 0h-180v1577h651q59 0 113 2.5t78 4.5l24 3v-162h-686v-530h584v-156h-584v-739z" />
<glyph unicode="G" horiz-adv-x="1531" d="M1358 774v-473q0 -67 -43.5 -129t-113.5 -105.5t-158.5 -70t-178.5 -27.5q-125 0 -231 26.5t-181 71.5t-134 108.5t-95 132.5t-60 148t-33 151.5t-9 146.5q0 154 32.5 284.5t89 221.5t128.5 160t156 109t165 59.5t162 19.5q65 0 127.5 -13.5t110 -34.5t90 -47t71.5 -52 t51 -47t32 -34l10 -14l-121 -119q-5 8 -15.5 22t-45.5 49.5t-74.5 62.5t-101 49t-126.5 22q-57 0 -118 -17t-124 -51t-118.5 -91.5t-99.5 -132t-69.5 -179.5t-25.5 -227q0 -57 6.5 -113t24 -119t44 -117.5t70 -105.5t99 -87t134 -57.5t171.5 -21.5q61 0 138 26t134.5 70.5 t57.5 89.5v295h-185h-22h-27.5t-25.5 1t-30 2.5t-27 4.5t-29 8t-25 11v147q58 -14 193 -14h350z" />
<glyph unicode="H" horiz-adv-x="1515" d="M352 0h-180v1577h180v-684h811v684h180v-1577h-180v737h-811v-737z" />
<glyph unicode="I" horiz-adv-x="524" d="M352 0h-180v1577h180v-1577z" />
<glyph unicode="J" horiz-adv-x="581" d="M231 1577h181v-1612q0 -94 -25.5 -173.5t-63.5 -130.5t-91 -92t-96.5 -62t-92.5 -37l-66 161q50 14 93 39t80.5 64t59 98.5t21.5 132.5v1612z" />
<glyph unicode="K" horiz-adv-x="1253" d="M172 1577h180v-698l545 698h223l-577 -737q43 -5 102.5 -36.5t102.5 -78.5q43 -46 229 -349.5t248 -375.5h-2h-211q-39 41 -197 305t-184 297q-104 130 -279 90v-692h-180v1577z" />
<glyph unicode="L" horiz-adv-x="1136" d="M172 0v1577h180v-1421h500q59 0 113 2.5t78 5.5l24 2v-166h-895z" />
<glyph unicode="M" horiz-adv-x="1738" d="M352 0h-180v1577h180l514 -1352l2 -14l2 14l516 1352h181v-1577h-181v1106l3 35l-9 -35l-424 -1106h-174l-424 1106l-8 33l2 -33v-1106z" />
<glyph unicode="N" horiz-adv-x="1478" d="M352 0h-180v1577h180v-2l762 -1239l14 -29l-2 29v1241h181v-1577h-181v2l-761 1243l-15 29l2 -29v-1245z" />
<glyph unicode="O" horiz-adv-x="1546" d="M778 1608q96 0 183.5 -23.5t173.5 -82.5t148.5 -149t101.5 -234.5t40 -327.5q0 -157 -25.5 -284.5t-72 -215.5t-107 -152t-135.5 -100.5t-151.5 -53t-161.5 -16.5q-67 0 -131 11t-129.5 38.5t-122 69.5t-107 107t-85.5 147.5t-55.5 196t-20.5 247.5t20.5 247t56 196.5 t85.5 149t107 108t123.5 70.5t131 39.5t133.5 11.5zM778 1454q-67 0 -131.5 -20t-128 -69.5t-111 -123t-77 -189.5t-29.5 -261q0 -147 29.5 -264.5t76.5 -191t110 -122.5t126 -68.5t129 -19.5q71 0 135.5 19.5t127 67.5t108 121.5t73.5 189.5t29 263q0 121 -19 222.5 t-53.5 173t-78.5 125.5t-97.5 85.5t-107.5 46.5t-111 15z" />
<glyph unicode="P" horiz-adv-x="1263" d="M352 0h-180v1577h180v-61q157 92 336 92q211 0 343 -144.5t132 -373.5q0 -292 -128 -445t-361 -153q-166 0 -322 106v-598zM989 1090q0 161 -97 260.5t-263 99.5q-138 0 -277 -104v-558q149 -133 330 -133q141 0 224 110.5t83 324.5z" />
<glyph unicode="Q" horiz-adv-x="1546" d="M778 1608q96 0 183.5 -23.5t173.5 -82.5t148.5 -149t101.5 -234.5t40 -327.5q0 -169 -30.5 -304t-81 -224.5t-123 -152t-150.5 -93.5t-168 -42q24 -28 46 -46.5t69.5 -36t106.5 -17.5q94 0 192 33l45 -148q-37 -17 -108.5 -25.5t-128.5 -8.5q-94 1 -172.5 27.5 t-128.5 67.5t-80 79.5t-45 76.5q-86 12 -161.5 43.5t-148 94t-124 151t-82.5 222t-31 298.5q0 134 20.5 247t56 196.5t85.5 149t107 108t123.5 70.5t131 39.5t133.5 11.5zM778 1454q-67 0 -131.5 -20t-128 -69.5t-111 -123t-77 -189.5t-29.5 -261q0 -147 29.5 -264.5 t76.5 -191t110 -122.5t126 -68.5t129 -19.5q71 0 135.5 19.5t127 67.5t108 121.5t73.5 189.5t29 263q0 121 -19 222.5t-53.5 173t-78.5 125.5t-97.5 85.5t-107.5 46.5t-111 15z" />
<glyph unicode="R" horiz-adv-x="1337" d="M352 0h-180v1577h180v-64q147 92 346 95q193 0 309 -120.5t128 -330.5q-1 -93 -21.5 -170t-54 -129t-80.5 -90.5t-96 -60t-105 -33.5q60 -48 132.5 -144.5t130.5 -188t134 -189t142 -148.5v-4h-219q-48 38 -107 115.5t-113.5 159.5t-112.5 163t-122.5 142t-124.5 79h-166 v-659zM655 813q43 1 82 9.5t80.5 32.5t71 61t49 99t20.5 142q0 131 -77.5 210t-210.5 79q-171 0 -318 -100v-533h303z" />
<glyph unicode="S" horiz-adv-x="1265" d="M111 279l127 112q80 -130 181.5 -192.5t242.5 -65.5q140 0 233.5 76t93.5 217q0 40 -11 74.5t-26.5 60t-45.5 49t-55.5 38t-69 32t-72.5 26.5t-80 25q-61 19 -102 33t-94 37t-87.5 45.5t-71.5 55.5t-57.5 71t-34 88.5t-12.5 109.5q2 107 36.5 189t84 127.5t114.5 74 t117 37.5t103 9q147 0 251.5 -48.5t188.5 -148.5l-123 -104q-66 69 -138 103t-179 34q-32 0 -63.5 -5.5t-71 -23t-69 -46t-51 -80t-24.5 -118.5q-2 -45 16.5 -83t46 -63.5t76 -49.5t89.5 -38.5t104 -33.5q60 -19 103 -34t97.5 -39t92.5 -49t77 -61.5t63 -77.5t39 -96.5 t15 -119.5q0 -111 -41.5 -200t-113 -144t-161.5 -84t-192 -29q-187 6 -317.5 80t-228.5 230z" />
<glyph unicode="T" horiz-adv-x="1138" d="M14 1421v156h1110v-156h-469v-1421h-180v1421h-461z" />
<glyph unicode="U" horiz-adv-x="1398" d="M1227 489q0 -95 -21 -173.5t-54 -130.5t-79.5 -91.5t-93 -61.5t-100.5 -35.5t-95 -17.5t-84 -4t-84.5 4t-95.5 18t-100.5 36t-93 62t-79.5 92t-54 130t-21 172v1088h180v-1083q0 -90 25.5 -158.5t62.5 -106t87.5 -60.5t90.5 -29.5t82 -6.5q40 0 80.5 7.5t90 30.5t87 60.5 t63 104t26.5 153.5v1088h180v-1088z" />
<glyph unicode="V" horiz-adv-x="1400" d="M795 0h-189l-561 1577h191l458 -1296l6 -27l7 27l458 1296h191z" />
<glyph unicode="W" horiz-adv-x="1998" d="M647 0h-149l-447 1577h185l331 -1249l4 -25l4 25l328 1249h191l327 -1253l4 -25l5 25l331 1253h187l-447 -1577h-149l-348 1217l-7 36l-6 -36z" />
<glyph unicode="X" horiz-adv-x="1341" d="M1063 1577h219l-502 -791l502 -786h-219l-393 612l-389 -612h-222l500 786l-500 791h215l396 -616z" />
<glyph unicode="Y" horiz-adv-x="1259" d="M1038 1577h203l-520 -821v-756h-178v756l-525 821h211l404 -633z" />
<glyph unicode="Z" horiz-adv-x="1251" d="M1151 201v-170q-25 -14 -85.5 -21.5t-108.5 -8.5l-48 -1h-809v168l789 1241h-768v168h987v-164l-789 -1245h594q148 0 238 33z" />
<glyph unicode="[" horiz-adv-x="731" d="M590 1577v-123h-246v-1864h246v-122h-418v2109h418z" />
<glyph unicode="\" horiz-adv-x="741" d="M49 1577h170l473 -1577h-170z" />
<glyph unicode="]" horiz-adv-x="731" d="M141 -532v122h246v1864h-246v123h418v-2109h-418z" />
<glyph unicode="^" horiz-adv-x="1335" d="M594 1126h147l514 -1126h-147l-440 965l-441 -965h-147z" />
<glyph unicode="_" horiz-adv-x="1349" d="M1239 0v-131h-1128v131h1128z" />
<glyph unicode="`" horiz-adv-x="702" d="M111 1548h213l268 -299h-141z" />
<glyph unicode="a" horiz-adv-x="1150" d="M225 834l-34 68q-34 69 -33 71q321 178 540 178q67 0 118.5 -24t80 -59t46 -81.5t23 -84.5t5.5 -75v-606q0 -91 110 -143l-110 -103q-126 50 -158 177q-77 -82 -176 -129.5t-209 -47.5q-13 0 -32 2t-50.5 9.5t-61.5 20t-62 36t-56 54.5t-39.5 79.5t-15.5 106.5 q0 48 8.5 89.5t35 87.5t69.5 81.5t117.5 65t174.5 44.5q204 27 285 47v129q0 17 -2 34t-9.5 42t-20 43t-37.5 31.5t-58 13.5q-49 0 -113 -16.5t-121 -39.5t-106.5 -46.5t-79.5 -38.5zM422 119q101 -7 206.5 50t172.5 140v242q-65 -13 -266 -43q-80 -13 -133.5 -36t-79 -55 t-34.5 -63t-9 -71q0 -49 17 -84t43.5 -50.5t46 -22t36.5 -7.5z" />
<glyph unicode="b" horiz-adv-x="1277" d="M723 1151q111 0 197.5 -46.5t139.5 -127t80 -181t27 -214.5q0 -286 -126 -446.5t-347 -160.5q-80 0 -174.5 35t-177.5 101v-111h-170v1679h170v-698q75 82 164 126t217 44zM723 983q-242 2 -381 -213v-471q73 -73 171.5 -117.5t180.5 -44.5q137 0 219 119.5t82 325.5 q0 107 -29.5 195.5t-93 146.5t-149.5 59z" />
<glyph unicode="c" horiz-adv-x="1040" d="M594 1151q65 0 124.5 -18.5t98 -45t68 -53t42.5 -44.5l13 -19l-109 -103q-3 5 -8.5 14t-27 31t-46.5 39t-68 31t-91 14q-55 0 -108 -28.5t-98 -82.5t-73 -143.5t-28 -199.5q0 -113 36 -207.5t104.5 -151.5t156.5 -57q70 0 130.5 25t143.5 104l107 -102 q-58 -59 -111.5 -97.5t-102.5 -55t-84.5 -21.5t-82.5 -5q-138 0 -246 75.5t-165.5 204.5t-57.5 288q0 123 29.5 225.5t77.5 172t111.5 118t130 70.5t134.5 22z" />
<glyph unicode="d" horiz-adv-x="1308" d="M520 -16q-121 1 -216 79.5t-144 205.5t-49 276q0 285 128 445.5t349 160.5q167 0 350 -156v684h172v-1409q2 -2 0 -15.5t4.5 -38.5t16 -49.5t35.5 -48.5t63 -36l-109 -111q-50 18 -84.5 45.5t-52 60.5t-24.5 58t-11 55q-185 -209 -428 -206zM520 150q234 -17 418 272v375 q-87 85 -179.5 135.5t-170.5 50.5q-138 0 -219.5 -116.5t-81.5 -321.5q0 -104 28 -191.5t81.5 -143t123.5 -60.5z" />
<glyph unicode="e" horiz-adv-x="1181" d="M111 551q0 165 58.5 300.5t169.5 217.5t255 82q86 0 157 -24t117 -61t81 -87t53.5 -97t29.5 -97t14 -80.5t3 -53.5v-80h-768q-8 -204 76.5 -326t244.5 -122h30.5t36.5 3.5t46.5 10t50 21t58 35t60.5 54t66 75.5l105 -101q-33 -41 -67.5 -75t-62 -58.5t-61 -43.5 t-54.5 -30.5t-53 -19.5t-45.5 -11.5t-43 -5.5t-35 -2h-31.5q-96 0 -176.5 30t-138 83.5t-97.5 126.5t-59.5 157.5t-19.5 178.5zM594 1004q-108 0 -181.5 -77t-109.5 -204h571q-8 49 -25 93.5t-48.5 89t-85 71.5t-121.5 27z" />
<glyph unicode="f" horiz-adv-x="804" d="M381 1323v-197h332v-143h-332v-983h-170v983h-145v143h145v197q0 367 317 367q72 0 161.5 -33t142.5 -65l53 -33l-105 -105q-16 10 -43.5 25.5t-94.5 41t-114 25.5q-40 0 -67.5 -12t-42.5 -29.5t-23.5 -50t-10.5 -59.5t-3 -72z" />
<glyph unicode="g" horiz-adv-x="1255" d="M330 795q0 -67 19.5 -116.5t47 -76t67.5 -42.5t72 -20.5t68 -4.5q34 0 68 6t72 24t66.5 45.5t47.5 75t19 109.5q0 48 -18.5 88t-48 65.5t-66.5 43t-72.5 25t-67.5 7.5t-67.5 -7.5t-73 -25t-66.5 -43t-48 -65.5t-19 -88zM188 250q0 95 146 213q-174 98 -174 332 q0 73 30 135t77.5 102.5t107.5 69t118 41t111 12.5q64 0 137 -18q63 57 145.5 88.5t164.5 31.5q55 0 123 -20l-29 -143q-37 12 -94 12q-85 0 -166 -33q162 -103 162 -278q0 -93 -30.5 -165.5t-76.5 -114t-108 -68t-117 -35.5t-111 -9q-64 0 -123 11q-121 -86 -121 -164 q4 -4 25.5 -7t54 -4.5t62.5 -2.5t62.5 -2t41.5 -1q76 -4 137 -11t132 -21.5t123.5 -38.5t97.5 -59t68.5 -87t23.5 -118q0 -95 -35 -177t-104 -146t-181 -101t-256 -37q-127 0 -240.5 49t-182 133t-68.5 180q1 65 13 114t38 86.5t52 61.5t69 56q-105 46 -105 133zM612 -414 q197 0 301.5 89.5t104.5 222.5q0 36 -17 64.5t-50 47.5t-69.5 32t-88.5 21t-93 12t-96 7q-18 0 -68 1t-79 1q-44 -27 -68 -46t-50.5 -52t-38 -78.5t-11.5 -108.5q0 -57 48 -107t122.5 -78t152.5 -28z" />
<glyph unicode="h" d="M344 0h-172v1679h172v-770q107 103 235.5 172.5t256.5 69.5q260 0 260 -350v-801h-172v801q0 178 -88 178q-235 0 -492 -268v-711z" />
<glyph unicode="i" horiz-adv-x="555" d="M193 1126h169v-1126h-169v1126zM172 1473q0 44 30.5 74t76.5 30q44 0 74 -30t30 -74q0 -46 -30 -76.5t-74 -30.5q-46 0 -76.5 30.5t-30.5 76.5z" />
<glyph unicode="j" horiz-adv-x="450" d="M88 1126h170v-1214q0 -179 -87.5 -308.5t-193.5 -166.5l-51 162q62 8 112 101t50 212v1214zM68 1473q0 44 30 74t76 30q44 0 74.5 -30t30.5 -74q0 -46 -30.5 -76.5t-74.5 -30.5q-46 0 -76 30.5t-30 76.5z" />
<glyph unicode="k" horiz-adv-x="1132" d="M1165 0h-231q-25 8 -102.5 91.5t-192 216.5t-147.5 169q-61 64 -99 74q-21 5 -49 -2v-549h-172v1679h172v-950q383 268 449 397h174q-35 -133 -467 -458q63 -24 114 -80q146 -170 337 -379t214 -209z" />
<glyph unicode="l" horiz-adv-x="569" d="M172 1679h170v-1380q0 -108 27 -135q43 -43 131 -43l-6 -146q-180 0 -250 70q-25 25 -41 57t-22 70.5t-7.5 62.5t-1.5 64v1380z" />
<glyph unicode="m" horiz-adv-x="1857" d="M344 0h-172v1126h172v-202q206 227 426 227q117 0 178 -56.5t76 -176.5q208 233 432 233q260 0 260 -350v-801h-172v801q0 178 -88 178q-50 0 -97 -11.5t-89.5 -36.5t-73 -46t-67.5 -59t-52.5 -56t-46.5 -55v-715h-172v801q0 178 -88 178q-69 0 -135 -25.5t-122.5 -71.5 t-92 -82t-76.5 -85v-715z" />
<glyph unicode="n" d="M344 0h-172v1126h172v-217q107 103 235.5 172.5t256.5 69.5q260 0 260 -350v-801h-172v801q0 178 -88 178q-229 0 -492 -268v-711z" />
<glyph unicode="o" horiz-adv-x="1200" d="M111 563q0 125 27.5 226t73.5 167.5t109.5 111t133 64t145.5 19.5q96 0 181 -32.5t155.5 -100t112 -184.5t41.5 -271q0 -126 -27.5 -227.5t-74 -167.5t-110 -110.5t-132.5 -63.5t-146 -19t-145.5 18t-132.5 61.5t-110 109.5t-73.5 168t-27.5 231zM918 563 q0 114 -27.5 202.5t-73.5 140.5t-101 78t-116 26t-115.5 -24.5t-101 -75t-73.5 -140t-27 -207.5q0 -117 27 -206t73.5 -140.5t101 -76.5t115.5 -25t116 24.5t101 75t73.5 140t27.5 208.5z" />
<glyph unicode="p" horiz-adv-x="1273" d="M340 -532h-168v1658h168v-188q75 97 181.5 155.5t236.5 57.5q91 -1 168.5 -48t128.5 -126t79.5 -181t28.5 -214q0 -286 -126 -446.5t-347 -160.5q-75 0 -168 42.5t-182 113.5v-663zM758 983q-75 1 -144 -25t-121.5 -70t-87.5 -84.5t-65 -86.5v-398q76 -76 174 -126 t176 -50q138 0 219.5 117t81.5 322q0 105 -28 195t-82 147.5t-123 58.5z" />
<glyph unicode="q" horiz-adv-x="1277" d="M516 -25q-121 1 -215 82t-142 209.5t-48 278.5q0 286 126 446t347 160q79 0 173.5 -34.5t176.5 -100.5v110h172v-1658h-172v747q-195 -242 -418 -240zM516 137q229 -4 418 293v377q-81 78 -177.5 131t-172.5 53q-137 0 -219 -120t-82 -326q0 -105 28 -197t82 -151 t123 -60z" />
<glyph unicode="r" horiz-adv-x="892" d="M172 1126h172v-153q104 178 285 178q49 0 95.5 -11.5t77 -28.5t54 -33.5t34.5 -27.5l11 -12l-119 -114q-6 7 -16.5 17.5t-48 28t-80.5 17.5q-47 0 -92 -25.5t-82 -69.5t-65.5 -89.5t-53.5 -97.5v-705h-172v1126z" />
<glyph unicode="s" horiz-adv-x="1028" d="M319 829q0 -28 14.5 -51.5t32 -38t55.5 -31t60 -23.5t72 -23q43 -13 61.5 -19t58 -20t59 -23.5t52 -27.5t49 -34.5t38 -41.5t32 -51.5t18 -61t7.5 -74.5q0 -82 -34 -147.5t-91 -105t-126.5 -60.5t-146.5 -21q-131 0 -251 59.5t-189 170.5l119 96q45 -83 135 -131.5 t191 -50.5q92 0 157.5 49.5t65.5 140.5q0 34 -16 62.5t-37.5 46.5t-60.5 36.5t-66 28t-74 23.5q-45 13 -74.5 23t-70.5 26.5t-67.5 32.5t-56 41t-46 52.5t-28 65.5t-11.5 82q0 78 27.5 138.5t67 94t91 55t93 28t79.5 6.5q108 0 200.5 -35t153.5 -96l-110 -107 q-40 43 -105 69t-139 26q-21 0 -43 -4t-49 -15.5t-47.5 -30.5t-35 -52.5t-14.5 -76.5z" />
<glyph unicode="t" horiz-adv-x="815" d="M90 987v143h143v406h173v-406h270v-143h-270v-659q0 -27 0.5 -42.5t3 -43.5t9.5 -45t18 -35.5t30.5 -27.5t44.5 -9q87 0 170 80l104 -101q-66 -69 -143 -99t-176 -30q-234 0 -234 353v659h-143z" />
<glyph unicode="u" d="M401 141q229 0 492 273v712h172v-1126h-172v199q-103 -98 -233 -161t-259 -63q-260 0 -260 351v800h172v-800q0 -185 88 -185z" />
<glyph unicode="v" horiz-adv-x="1069" d="M31 1126h198l293 -870l6 -39q1 -4 2 5q1 4 2 15q2 17 3 19q70 265 174.5 548t148.5 322h186q-45 -48 -106 -182t-116.5 -290t-104.5 -305.5t-78 -248.5l-29 -100h-149z" />
<glyph unicode="w" horiz-adv-x="1591" d="M539 0h-162l-326 1126h187l223 -839l6 -43l6 43l240 839h147l240 -839l8 -43l6 43q217 818 258 839h168q-24 -24 -113 -305.5t-166 -550.5l-77 -270h-146l-252 868z" />
<glyph unicode="x" horiz-adv-x="1191" d="M111 1126h217l278 -407q91 136 188 269t115 138h213q-28 -13 -163 -194t-257 -354l410 -578h-217l-291 434q-295 -427 -321 -434h-213q29 13 183.5 221.5t254.5 353.5z" />
<glyph unicode="y" horiz-adv-x="1050" d="M33 1126h182l305 -790q306 751 352 790h195q-32 -31 -67.5 -99t-140 -314t-327.5 -793q-25 -63 -40.5 -98.5t-42 -88t-57.5 -94t-68 -77.5q-121 -116 -291 -125l-43 149q85 5 131.5 27t85.5 61q39 38 73.5 97.5t90.5 193.5l55 137z" />
<glyph unicode="z" horiz-adv-x="1056" d="M977 180v-145q-12 -14 -49 -22.5t-68 -10.5l-31 -2h-729v145l635 838h-635v143h842v-143l-635 -838h524q13 0 32.5 1t59 9.5t54.5 24.5z" />
<glyph unicode="{" horiz-adv-x="958" d="M580 1700q60 0 119 -17t89 -34l29 -17l-57 -143q-6 4 -19 10.5t-59.5 17.5t-101.5 11q-27 0 -38.5 -45t-11.5 -94v-613q0 -5 -1.5 -16t-9 -35.5t-20 -47.5t-39 -51t-61.5 -48q36 -20 63 -48t39.5 -50.5t19.5 -48t8 -35.5t1 -17v-612q0 -50 11.5 -95t38.5 -45 q55 0 100 9.5t62 19.5l18 10l57 -143q-11 -8 -32 -19t-83 -30t-122 -19q-66 0 -113 33t-69 85.5t-31 99.5t-9 94v610q0 6 -1 16t-11.5 36t-29 45.5t-59 35.5t-95.5 16v103q56 0 96.5 15.5t59 37.5t28.5 43.5t11 36.5l1 16v611q0 36 5 73t19.5 81t38 77.5t64.5 56.5t95 23z " />
<glyph unicode="|" horiz-adv-x="499" d="M328 -532h-156v2232h156v-2232z" />
<glyph unicode="}" horiz-adv-x="958" d="M379 1528q-55 0 -100 -10t-63 -20l-17 -9l-58 143q12 8 32.5 19t83 30t122.5 19q54 0 95 -23t64 -56.5t38 -78t19.5 -81t4.5 -72.5v-611q0 -6 1 -16t11.5 -36t29 -45.5t59 -35.5t96.5 -16v-103q-53 0 -93 -15t-59 -33.5t-30 -42.5t-13 -36t-2 -20v-612q0 -47 -9 -94 t-30.5 -99.5t-68.5 -85.5t-113 -33q-60 0 -119.5 17t-89.5 34l-29 17l58 143q6 -4 19 -10.5t59.5 -17.5t101.5 -11q27 0 38 45t11 95v610q0 5 1 14t8 35t19.5 49.5t38.5 52.5t62 50q-36 20 -62 47.5t-38.5 50.5t-19.5 48t-8 35t-1 17v613q0 50 -11 94.5t-38 44.5z" />
<glyph unicode="~" horiz-adv-x="1331" d="M184 606l-73 109q3 3 10 9t33 21.5t56 28.5t81 27t108 20q88 10 263 -37q188 -40 266 -32q71 8 128 26t78 32l21 15l66 -114q-11 -9 -32.5 -23t-93.5 -41t-151 -35q-101 -11 -301 37q-155 38 -227 31q-78 -8 -136 -26.5t-77 -33.5z" />
<glyph unicode="&#xa1;" horiz-adv-x="598" d="M225 766h150l26 -1303h-202zM426 1028q0 -54 -36.5 -89.5t-92.5 -35.5q-54 0 -89.5 35.5t-35.5 89.5q0 56 35.5 92.5t89.5 36.5q55 0 92 -36.5t37 -92.5z" />
<glyph unicode="&#xa2;" horiz-adv-x="1040" d="M692 1341h119l-59 -221q35 -14 67 -34.5t53.5 -40t37.5 -36.5t23 -27l7 -11l-109 -103q-1 3 -4 7.5t-14 18t-23 25.5t-33 27t-44 25l-217 -830q38 -14 84 -14q70 0 130.5 25t143.5 104l107 -102q-58 -59 -111.5 -97.5t-102.5 -55t-84.5 -21.5t-82.5 -5q-57 0 -123 17 l-45 -176h-119l57 223q-112 69 -175.5 203t-63.5 301q0 123 29.5 225.5t77.5 172t111.5 118t130 70.5t134.5 22q19 0 47 -4zM283 543q0 -102 29 -189t83 -145l207 788h-12q-55 0 -108 -28.5t-98 -82.5t-73 -143.5t-28 -199.5z" />
<glyph unicode="&#xa3;" horiz-adv-x="1206" d="M340 109q-26 0 -52 -13t-44.5 -32t-33.5 -37.5t-22 -31.5l-8 -13l-127 69q3 6 9.5 17t28.5 40.5t46.5 54t62 50.5t76.5 37l56 295h-148v143h176q107 549 156 742q16 60 46.5 107.5t64.5 75.5t73.5 46t70 24.5t56.5 6.5q45 0 83 -11.5t77.5 -41t65.5 -54.5t75 -76 l-110 -90q-35 37 -53 54.5t-43.5 38t-47.5 28.5t-47 8q-15 0 -33.5 -7t-41 -22.5t-42 -47.5t-30.5 -76q-31 -116 -148 -705h299v-143h-327l-58 -299q66 -17 158 -60q126 -59 199 -59q40 0 91.5 30.5t83.5 61.5l32 31l102 -103l-18.5 -18.5t-47.5 -41t-71 -52.5t-83 -41.5 t-89 -18.5q-66 0 -125 18.5t-135 53.5q-136 62 -203 62z" />
<glyph unicode="&#xa5;" horiz-adv-x="1259" d="M1092 481v-137h-371v-344h-178v344h-375v137h375v191h-375v137h340l-490 768h211l404 -633l405 633h203l-487 -768h338v-137h-371v-191h371z" />
<glyph unicode="&#xa8;" horiz-adv-x="884" d="M131 1356q0 44 30.5 74t76.5 30q44 0 74 -30t30 -74q0 -46 -30 -76.5t-74 -30.5q-46 0 -76.5 30.5t-30.5 76.5zM543 1356q0 44 31 74t75 30q45 0 75 -30t30 -74q0 -46 -29.5 -76.5t-75.5 -30.5q-45 0 -75.5 30.5t-30.5 76.5z" />
<glyph unicode="&#xa9;" horiz-adv-x="1800" d="M111 788q0 161 62.5 307.5t168.5 252.5t252 168.5t307 62.5t307 -62.5t251.5 -168.5t168 -252.5t62.5 -307.5t-62.5 -307t-168 -251t-251.5 -167.5t-307 -62.5q-215 0 -396.5 105.5t-287.5 287t-106 395.5zM907 1221q48 0 92.5 -14.5t73.5 -35.5t51.5 -42t32.5 -35 l10 -15l-92 -88q-2 4 -6.5 10.5t-20.5 23t-34 29t-48 23t-63 10.5q-79 0 -143 -82.5t-64 -232.5q0 -117 57 -202t144 -85q49 0 93 19t106 78l86 -86q-85 -87 -149 -113.5t-136 -26.5q-153 0 -249.5 118.5t-96.5 297.5q0 89 22 165t58 127t82.5 87.5t95.5 53t98 16.5z M229 788q0 -180 90.5 -334.5t245.5 -244.5t336 -90q180 0 334.5 90t245 244.5t90.5 334.5q0 181 -90.5 335.5t-244.5 244.5t-335 90q-182 0 -336.5 -90t-245 -244.5t-90.5 -335.5z" />
<glyph unicode="&#xad;" horiz-adv-x="704" d="M594 635v-143h-483v143h483z" />
<glyph unicode="&#xae;" horiz-adv-x="1800" d="M725 365h-127v852h127v-29q74 41 197 41q45 -2 88 -16t82 -41.5t62.5 -77t23.5 -113.5q-2 -208 -189 -262q62 -59 131 -154q92 -127 191 -200h-174q-53 39 -131 151q-48 65 -101.5 118.5t-97.5 72.5h-82v-342zM891 809q30 1 55.5 8.5t50.5 25.5t40 53.5t16 84.5 q0 66 -38.5 100.5t-92.5 34.5q-107 9 -197 -45v-262h166zM111 788q0 161 62.5 307.5t168.5 252.5t252 168.5t307 62.5t307 -62.5t251.5 -168.5t168 -252.5t62.5 -307.5t-62.5 -307t-168 -251t-251.5 -167.5t-307 -62.5q-215 0 -396.5 105.5t-287.5 287t-106 395.5zM229 788 q0 -180 90.5 -334.5t245.5 -244.5t336 -90q180 0 334.5 90t245 244.5t90.5 334.5q0 181 -90.5 335.5t-244.5 244.5t-335 90q-182 0 -336.5 -90t-245 -244.5t-90.5 -335.5z" />
<glyph unicode="&#xb4;" horiz-adv-x="702" d="M379 1548h213l-340 -299h-141z" />
<glyph unicode="&#xb6;" horiz-adv-x="1499" d="M926 -512h-117v1081l-16.5 -11t-44 -25t-66.5 -32t-80 -25t-90 -11q-171 0 -291.5 155.5t-120.5 399.5q0 152 68.5 279t196.5 202.5t290 75.5h682v-117h-153v-1972h-117v1972h-141v-1972z" />
<glyph unicode="&#xb7;" horiz-adv-x="501" d="M131 563q0 51 34.5 84t88.5 33q51 0 84 -33t33 -84q0 -54 -33 -88.5t-84 -34.5q-54 0 -88.5 34.5t-34.5 88.5z" />
<glyph unicode="&#xb8;" horiz-adv-x="665" d="M403 -252q0 83 -127 86h-38l96 166h108l-51 -106q144 -21 144 -146q0 -70 -54.5 -118t-163.5 -48q-15 0 -29 2t-25.5 4t-24 7t-21.5 8.5t-20 10t-17 10.5t-15.5 11.5t-12.5 10.5t-11.5 10t-9.5 8l57 74q62 -62 129 -62q43 0 64.5 21.5t21.5 50.5z" />
<glyph unicode="&#xbf;" horiz-adv-x="1028" d="M248 -178q0 -225 254 -225q43 0 85 13.5t75 35t62.5 47.5t50.5 52.5t36.5 48t22.5 34.5l8 14l108 -102q-7 -12 -19.5 -31t-55.5 -68.5t-91.5 -87.5t-125 -69t-156.5 -31q-88 0 -158.5 17.5t-115.5 48.5t-76.5 67.5t-47 80.5t-22 80.5t-6.5 74.5q0 62 18 120.5t46.5 106 t69 94.5t81 85.5t85.5 79.5q3 2 4.5 3.5t4 3.5t4.5 4q80 73 122 123.5t42 89.5q0 46 -24 78.5t-85 85.5l119 99q40 -36 61 -58t44 -55t33 -69.5t10 -82.5q0 -89 -52 -162t-161 -171q-53 -48 -89 -85t-76 -87t-61.5 -101t-23.5 -102zM635 1032q0 -49 -32.5 -80.5t-82.5 -31.5 t-81 31t-31 81t31.5 82.5t80.5 32.5q50 0 82.5 -32.5t32.5 -82.5z" />
<glyph unicode="&#xc0;" horiz-adv-x="1449" d="M631 1577h188l582 -1577h-191l-198 537h-576l-196 -537h-191zM725 1376q-3 -55 -14 -98l-217 -586h460l-217 586q-12 47 -12 98zM299 1978h213l268 -299h-141z" />
<glyph unicode="&#xc1;" horiz-adv-x="1449" d="M631 1577h188l582 -1577h-191l-198 537h-576l-196 -537h-191zM725 1376q-3 -55 -14 -98l-217 -586h460l-217 586q-12 47 -12 98zM936 1978h213l-340 -299h-141z" />
<glyph unicode="&#xc2;" horiz-adv-x="1449" d="M631 1577h188l582 -1577h-191l-198 537h-576l-196 -537h-191zM725 1376q-3 -55 -14 -98l-217 -586h460l-217 586q-12 47 -12 98zM657 1978h136l319 -299h-186l-201 195l-201 -195h-186z" />
<glyph unicode="&#xc3;" horiz-adv-x="1449" d="M631 1577h188l582 -1577h-191l-198 537h-576l-196 -537h-191zM725 1376q-3 -55 -14 -98l-217 -586h460l-217 586q-12 47 -12 98zM1092 1901l51 -103q-3 -4 -9.5 -11t-28 -24.5t-45 -31.5t-61.5 -26.5t-77 -14.5q-63 -4 -209 49q-130 49 -183 47q-52 -3 -95.5 -22.5 t-60.5 -37.5l-18 -18l-51 102q3 4 9.5 11t28 25t45 32t61.5 26.5t77 14.5q63 4 209 -49q130 -49 183 -47q53 3 96.5 22.5t60.5 37.5z" />
<glyph unicode="&#xc4;" horiz-adv-x="1449" d="M631 1577h188l582 -1577h-191l-198 537h-576l-196 -537h-191zM725 1376q-3 -55 -14 -98l-217 -586h460l-217 586q-12 47 -12 98zM414 1796q0 44 30 74.5t76 30.5q44 0 74.5 -30.5t30.5 -74.5q0 -46 -30.5 -76t-74.5 -30q-46 0 -76 30t-30 76zM825 1796q0 44 31.5 74.5 t75.5 30.5q45 0 74.5 -30t29.5 -75q0 -46 -29 -76t-75 -30q-45 0 -76 30.5t-31 75.5z" />
<glyph unicode="&#xc5;" horiz-adv-x="1449" d="M631 1577h188l582 -1577h-191l-198 537h-576l-196 -537h-191zM725 1376q-3 -55 -14 -98l-217 -586h460l-217 586q-12 47 -12 98zM530 1870q0 -82 57.5 -139.5t139.5 -57.5q78 0 133 57.5t55 139.5q0 78 -55 133t-133 55q-82 0 -139.5 -55t-57.5 -133q0 78 57.5 133 t139.5 55q78 0 133 -55t55 -133q0 -82 -55 -139.5t-133 -57.5q-82 0 -139.5 57.5t-57.5 139.5q0 78 57.5 133t139.5 55q78 0 133 -55t55 -133q0 -82 -55 -139.5t-133 -57.5q-82 0 -139.5 57.5t-57.5 139.5zM629 1870q0 -40 29 -69t69 -29q36 0 64 29.5t28 68.5 q0 35 -28.5 63.5t-63.5 28.5q-39 0 -68.5 -28t-29.5 -64z" />
<glyph unicode="&#xc6;" horiz-adv-x="2002" d="M1923 0h-895v537h-481l-299 -537h-199l871 1577h759q59 0 113 2.5t78 4.5l24 3v-164h-686v-528h584v-156h-584v-583h500q59 0 113 2.5t78 5.5l24 2v-166zM1028 1399l-395 -707h395v707z" />
<glyph unicode="&#xc7;" horiz-adv-x="1314" d="M1214 1393l-118 -115q-4 6 -12 17t-38 38t-65.5 48t-95.5 38t-127 17q-86 0 -166 -44t-144.5 -127.5t-103.5 -219t-39 -302.5q0 -255 133 -431t320 -181q43 -1 84 4.5t74 16t64 24t55 29t44.5 30.5t35.5 29.5t25 25t16 16.5l5 7l113 -112q-10 -8 -37 -35.5t-51 -50.5 t-69.5 -53t-93.5 -49.5t-120.5 -32.5t-154.5 -11q-179 5 -322 105t-224 275.5t-81 393.5q0 206 53.5 373.5t143.5 273t203.5 162t238.5 56.5q68 0 129.5 -12t106 -31t82.5 -42t62.5 -45.5t41.5 -41.5t24 -31zM752 -252q0 83 -127 86h-39l96 166h109l-52 -106 q144 -21 144 -146q0 -70 -54 -118t-163 -48q-43 0 -83 15.5t-56.5 27.5t-41.5 34q-4 3 -6 5l58 74q62 -62 129 -62q43 0 64.5 21.5t21.5 50.5z" />
<glyph unicode="&#xc8;" horiz-adv-x="1146" d="M1067 0h-895v1577h651q59 0 113 2.5t78 4.5l24 3v-164h-686v-528h584v-156h-584v-583h500q59 0 113 2.5t78 5.5l24 2v-166zM174 1978h213l268 -299h-141z" />
<glyph unicode="&#xc9;" horiz-adv-x="1146" d="M1067 0h-895v1577h651q59 0 113 2.5t78 4.5l24 3v-164h-686v-528h584v-156h-584v-583h500q59 0 113 2.5t78 5.5l24 2v-166zM782 1978h213l-340 -299h-141z" />
<glyph unicode="&#xca;" horiz-adv-x="1146" d="M1067 0h-895v1577h651q59 0 113 2.5t78 4.5l24 3v-164h-686v-528h584v-156h-584v-583h500q59 0 113 2.5t78 5.5l24 2v-166zM504 1978h135l319 -299h-186l-201 195l-200 -195h-187z" />
<glyph unicode="&#xcb;" horiz-adv-x="1146" d="M1067 0h-895v1577h651q59 0 113 2.5t78 4.5l24 3v-164h-686v-528h584v-156h-584v-583h500q59 0 113 2.5t78 5.5l24 2v-166zM260 1796q0 44 30.5 74.5t76.5 30.5q44 0 74 -30.5t30 -74.5q0 -46 -30 -76t-74 -30q-46 0 -76.5 30t-30.5 76zM672 1796q0 44 31 74.5t75 30.5 q45 0 75 -30t30 -75q0 -46 -29.5 -76t-75.5 -30q-45 0 -75.5 30.5t-30.5 75.5z" />
<glyph unicode="&#xcc;" horiz-adv-x="514" d="M346 0h-180v1577h180v-1577zM-127 1978h213l268 -299h-141z" />
<glyph unicode="&#xcd;" horiz-adv-x="514" d="M346 0h-180v1577h180v-1577zM428 1978h213l-340 -299h-141z" />
<glyph unicode="&#xce;" horiz-adv-x="589" d="M385 0h-180v1577h180v-1577zM227 1978h135l320 -299h-186l-201 195l-201 -195h-186z" />
<glyph unicode="&#xcf;" horiz-adv-x="512" d="M346 0h-180v1577h180v-1577zM-55 1796q0 44 30.5 74.5t75.5 30.5q44 0 74.5 -30.5t30.5 -74.5q0 -46 -30 -76t-75 -30q-46 0 -76 30t-30 76zM356 1796q0 44 31.5 74.5t75.5 30.5q45 0 74.5 -30t29.5 -75q0 -46 -29 -76t-75 -30q-45 0 -76 30.5t-31 75.5z" />
<glyph unicode="&#xd0;" horiz-adv-x="1587" d="M301 0v752h-160v143h160v655q295 37 424 37q76 0 141 -6.5t134.5 -22.5t126 -45t110.5 -71.5t94.5 -104.5t71.5 -141t47 -185t16 -233q0 -365 -176.5 -571.5t-466.5 -206.5h-522zM850 895v-143h-369v-596h342q203 0 333 168t130 454q0 122 -15.5 217.5t-54.5 180 t-101.5 140t-159.5 87t-226 31.5q-46 0 -91 -3t-70.5 -6.5t-54 -8t-32.5 -5.5v-516h369z" />
<glyph unicode="&#xd1;" horiz-adv-x="1478" d="M352 0h-180v1577h180v-2l762 -1239l14 -29l-2 29v1241h181v-1577h-181v2l-761 1243l-15 29l2 -29v-1245zM1106 1901l51 -103q-3 -4 -9.5 -11t-28 -24.5t-45 -31.5t-61.5 -26.5t-77 -14.5q-63 -4 -209 49q-130 49 -182 47q-52 -3 -95.5 -22.5t-61.5 -37.5l-17 -18l-52 102 q3 4 9.5 11t28 25t45.5 32t62 26.5t77 14.5q63 4 209 -49q130 -49 182 -47q53 3 96.5 22.5t60.5 37.5z" />
<glyph unicode="&#xd2;" horiz-adv-x="1546" d="M778 1608q96 0 183.5 -23.5t173.5 -82.5t148.5 -149t101.5 -234.5t40 -327.5q0 -157 -25.5 -284.5t-72 -215.5t-107 -152t-135.5 -100.5t-151.5 -53t-161.5 -16.5q-67 0 -131 11t-129.5 38.5t-122 69.5t-107 107t-85.5 147.5t-55.5 196t-20.5 247.5t20.5 247t56 196.5 t85.5 149t107 108t123.5 70.5t131 39.5t133.5 11.5zM778 1454q-67 0 -131.5 -20t-128 -69.5t-111 -123t-77 -189.5t-29.5 -261q0 -147 29.5 -264.5t76.5 -191t110 -122.5t126 -68.5t129 -19.5q71 0 135.5 19.5t127 67.5t108 121.5t73.5 189.5t29 263q0 121 -19 222.5 t-53.5 173t-78.5 125.5t-97.5 85.5t-107.5 46.5t-111 15zM373 1978h213l268 -299h-141z" />
<glyph unicode="&#xd3;" horiz-adv-x="1546" d="M778 1608q96 0 183.5 -23.5t173.5 -82.5t148.5 -149t101.5 -234.5t40 -327.5q0 -157 -25.5 -284.5t-72 -215.5t-107 -152t-135.5 -100.5t-151.5 -53t-161.5 -16.5q-67 0 -131 11t-129.5 38.5t-122 69.5t-107 107t-85.5 147.5t-55.5 196t-20.5 247.5t20.5 247t56 196.5 t85.5 149t107 108t123.5 70.5t131 39.5t133.5 11.5zM778 1454q-67 0 -131.5 -20t-128 -69.5t-111 -123t-77 -189.5t-29.5 -261q0 -147 29.5 -264.5t76.5 -191t110 -122.5t126 -68.5t129 -19.5q71 0 135.5 19.5t127 67.5t108 121.5t73.5 189.5t29 263q0 121 -19 222.5 t-53.5 173t-78.5 125.5t-97.5 85.5t-107.5 46.5t-111 15zM969 1978h213l-340 -299h-142z" />
<glyph unicode="&#xd4;" horiz-adv-x="1546" d="M778 1608q96 0 183.5 -23.5t173.5 -82.5t148.5 -149t101.5 -234.5t40 -327.5q0 -157 -25.5 -284.5t-72 -215.5t-107 -152t-135.5 -100.5t-151.5 -53t-161.5 -16.5q-67 0 -131 11t-129.5 38.5t-122 69.5t-107 107t-85.5 147.5t-55.5 196t-20.5 247.5t20.5 247t56 196.5 t85.5 149t107 108t123.5 70.5t131 39.5t133.5 11.5zM778 1454q-67 0 -131.5 -20t-128 -69.5t-111 -123t-77 -189.5t-29.5 -261q0 -147 29.5 -264.5t76.5 -191t110 -122.5t126 -68.5t129 -19.5q71 0 135.5 19.5t127 67.5t108 121.5t73.5 189.5t29 263q0 121 -19 222.5 t-53.5 173t-78.5 125.5t-97.5 85.5t-107.5 46.5t-111 15zM709 1978h135l319 -299h-186l-201 195l-201 -195h-186z" />
<glyph unicode="&#xd5;" horiz-adv-x="1546" d="M778 1608q96 0 183.5 -23.5t173.5 -82.5t148.5 -149t101.5 -234.5t40 -327.5q0 -157 -25.5 -284.5t-72 -215.5t-107 -152t-135.5 -100.5t-151.5 -53t-161.5 -16.5q-67 0 -131 11t-129.5 38.5t-122 69.5t-107 107t-85.5 147.5t-55.5 196t-20.5 247.5t20.5 247t56 196.5 t85.5 149t107 108t123.5 70.5t131 39.5t133.5 11.5zM778 1454q-67 0 -131.5 -20t-128 -69.5t-111 -123t-77 -189.5t-29.5 -261q0 -147 29.5 -264.5t76.5 -191t110 -122.5t126 -68.5t129 -19.5q71 0 135.5 19.5t127 67.5t108 121.5t73.5 189.5t29 263q0 121 -19 222.5 t-53.5 173t-78.5 125.5t-97.5 85.5t-107.5 46.5t-111 15zM1145 1901l51 -103q-3 -4 -9.5 -11t-28 -24.5t-45 -31.5t-61.5 -26.5t-77 -14.5q-63 -4 -209 49q-130 49 -182 47q-52 -3 -95.5 -22.5t-60.5 -37.5l-18 -18l-52 102q3 4 9.5 11t28 25t45.5 32t62 26.5t77 14.5 q62 4 208 -49q130 -49 183 -47q53 3 96.5 22.5t60.5 37.5z" />
<glyph unicode="&#xd6;" horiz-adv-x="1546" d="M778 1608q96 0 183.5 -23.5t173.5 -82.5t148.5 -149t101.5 -234.5t40 -327.5q0 -157 -25.5 -284.5t-72 -215.5t-107 -152t-135.5 -100.5t-151.5 -53t-161.5 -16.5q-67 0 -131 11t-129.5 38.5t-122 69.5t-107 107t-85.5 147.5t-55.5 196t-20.5 247.5t20.5 247t56 196.5 t85.5 149t107 108t123.5 70.5t131 39.5t133.5 11.5zM778 1454q-67 0 -131.5 -20t-128 -69.5t-111 -123t-77 -189.5t-29.5 -261q0 -147 29.5 -264.5t76.5 -191t110 -122.5t126 -68.5t129 -19.5q71 0 135.5 19.5t127 67.5t108 121.5t73.5 189.5t29 263q0 121 -19 222.5 t-53.5 173t-78.5 125.5t-97.5 85.5t-107.5 46.5t-111 15zM465 1796q0 44 30.5 74.5t75.5 30.5q44 0 74.5 -30.5t30.5 -74.5q0 -46 -30 -76t-75 -30q-46 0 -76 30t-30 76zM877 1796q0 44 31 74.5t75 30.5q45 0 74.5 -30t29.5 -75q0 -46 -29 -76t-75 -30q-45 0 -75.5 30.5 t-30.5 75.5z" />
<glyph unicode="&#xd8;" horiz-adv-x="1546" d="M778 1608q163 0 297 -70l58 111h159l-100 -193q230 -210 233 -665q0 -157 -25.5 -284.5t-72 -215.5t-107 -152t-135.5 -100.5t-151.5 -53t-161.5 -16.5q-168 0 -305 70l-57 -111h-160l98 193q-227 210 -227 665q0 134 20.5 247t56 196.5t85.5 149t107 108t123.5 70.5 t131 39.5t133.5 11.5zM1245 786q0 327 -137 504l-563 -1097q103 -68 227 -68q71 0 135.5 19.5t127 67.5t108 121.5t73.5 189.5t29 263zM778 1454q-67 0 -131.5 -20t-128 -69.5t-111 -123t-77 -189.5t-29.5 -261q0 -323 135 -498l563 1096q-101 65 -221 65z" />
<glyph unicode="&#xd9;" horiz-adv-x="1398" d="M1227 489q0 -95 -21 -173.5t-54 -130.5t-79.5 -91.5t-93 -61.5t-100.5 -35.5t-95 -17.5t-84 -4t-84.5 4t-95.5 18t-100.5 36t-93 62t-79.5 92t-54 130t-21 172v1088h180v-1083q0 -90 25.5 -158.5t62.5 -106t87.5 -60.5t90.5 -29.5t82 -6.5q40 0 80.5 7.5t90 30.5t87 60.5 t63 104t26.5 153.5v1088h180v-1088zM299 1978h213l268 -299h-141z" />
<glyph unicode="&#xda;" horiz-adv-x="1398" d="M1227 489q0 -95 -21 -173.5t-54 -130.5t-79.5 -91.5t-93 -61.5t-100.5 -35.5t-95 -17.5t-84 -4t-84.5 4t-95.5 18t-100.5 36t-93 62t-79.5 92t-54 130t-21 172v1088h180v-1083q0 -90 25.5 -158.5t62.5 -106t87.5 -60.5t90.5 -29.5t82 -6.5q40 0 80.5 7.5t90 30.5t87 60.5 t63 104t26.5 153.5v1088h180v-1088zM895 1978h213l-340 -299h-141z" />
<glyph unicode="&#xdb;" horiz-adv-x="1398" d="M1227 489q0 -95 -21 -173.5t-54 -130.5t-79.5 -91.5t-93 -61.5t-100.5 -35.5t-95 -17.5t-84 -4t-84.5 4t-95.5 18t-100.5 36t-93 62t-79.5 92t-54 130t-21 172v1088h180v-1083q0 -90 25.5 -158.5t62.5 -106t87.5 -60.5t90.5 -29.5t82 -6.5q40 0 80.5 7.5t90 30.5t87 60.5 t63 104t26.5 153.5v1088h180v-1088zM637 1978h135l320 -299h-187l-200 195l-201 -195h-187z" />
<glyph unicode="&#xdc;" horiz-adv-x="1398" d="M1227 489q0 -95 -21 -173.5t-54 -130.5t-79.5 -91.5t-93 -61.5t-100.5 -35.5t-95 -17.5t-84 -4t-84.5 4t-95.5 18t-100.5 36t-93 62t-79.5 92t-54 130t-21 172v1088h180v-1083q0 -90 25.5 -158.5t62.5 -106t87.5 -60.5t90.5 -29.5t82 -6.5q40 0 80.5 7.5t90 30.5t87 60.5 t63 104t26.5 153.5v1088h180v-1088zM393 1796q0 44 30.5 74.5t76.5 30.5q44 0 74 -30.5t30 -74.5q0 -46 -30 -76t-74 -30q-46 0 -76.5 30t-30.5 76zM805 1796q0 44 31 74.5t75 30.5q45 0 75 -30t30 -75q0 -46 -29.5 -76t-75.5 -30q-45 0 -75.5 30.5t-30.5 75.5z" />
<glyph unicode="&#xdd;" horiz-adv-x="1259" d="M1038 1577h203l-520 -821v-756h-178v756l-525 821h211l404 -633zM758 1999h213l-340 -299h-142z" />
<glyph unicode="&#xde;" horiz-adv-x="1284" d="M352 0h-180v1577h180v-281q159 93 336 93q210 0 342.5 -145t132.5 -374q0 -292 -128 -445t-361 -153q-164 0 -322 107v-379zM989 870q0 161 -97 261t-263 100q-137 0 -277 -105v-557q149 -133 330 -133q141 0 224 110.5t83 323.5z" />
<glyph unicode="&#xdf;" horiz-adv-x="1331" d="M524 811v147q49 2 95 10.5t100.5 31.5t93.5 58t65.5 96.5t26.5 141.5q-1 53 -21 96t-49 69.5t-65.5 44.5t-68.5 25t-60 7q-243 0 -260 -215v-1323h-170v983h-145v143h145v197q0 126 58 211t152.5 122.5t219.5 37.5q54 0 109.5 -10.5t115.5 -39.5t105.5 -72.5t75.5 -116 t30 -163.5q-3 -246 -166 -368q130 -39 214.5 -144.5t84.5 -275.5q0 -53 -5 -99.5t-20 -99t-39.5 -95.5t-66 -83t-97 -67t-135 -43.5t-177.5 -16.5q-72 0 -142 25v159q59 -16 140 -16q88 0 154.5 18.5t107 48.5t65.5 74.5t34 91t9 103.5q0 321 -514 307z" />
<glyph unicode="&#xe0;" horiz-adv-x="1150" d="M225 834l-34 68q-34 69 -33 71q321 178 540 178q67 0 118.5 -24t80 -59t46 -81.5t23 -84.5t5.5 -75v-606q0 -91 110 -143l-110 -103q-126 50 -158 177q-77 -82 -176 -129.5t-209 -47.5q-13 0 -32 2t-50.5 9.5t-61.5 20t-62 36t-56 54.5t-39.5 79.5t-15.5 106.5 q0 48 8.5 89.5t35 87.5t69.5 81.5t117.5 65t174.5 44.5q204 27 285 47v129q0 17 -2 34t-9.5 42t-20 43t-37.5 31.5t-58 13.5q-49 0 -113 -16.5t-121 -39.5t-106.5 -46.5t-79.5 -38.5zM422 119q101 -7 206.5 50t172.5 140v242q-65 -13 -266 -43q-80 -13 -133.5 -36t-79 -55 t-34.5 -63t-9 -71q0 -49 17 -84t43.5 -50.5t46 -22t36.5 -7.5zM197 1548h213l268 -299h-141z" />
<glyph unicode="&#xe1;" horiz-adv-x="1150" d="M225 834l-34 68q-34 69 -33 71q321 178 540 178q67 0 118.5 -24t80 -59t46 -81.5t23 -84.5t5.5 -75v-606q0 -91 110 -143l-110 -103q-126 50 -158 177q-77 -82 -176 -129.5t-209 -47.5q-13 0 -32 2t-50.5 9.5t-61.5 20t-62 36t-56 54.5t-39.5 79.5t-15.5 106.5 q0 48 8.5 89.5t35 87.5t69.5 81.5t117.5 65t174.5 44.5q204 27 285 47v129q0 17 -2 34t-9.5 42t-20 43t-37.5 31.5t-58 13.5q-49 0 -113 -16.5t-121 -39.5t-106.5 -46.5t-79.5 -38.5zM422 119q101 -7 206.5 50t172.5 140v242q-65 -13 -266 -43q-80 -13 -133.5 -36t-79 -55 t-34.5 -63t-9 -71q0 -49 17 -84t43.5 -50.5t46 -22t36.5 -7.5zM752 1548h213l-340 -299h-142z" />
<glyph unicode="&#xe2;" horiz-adv-x="1150" d="M225 834l-34 68q-34 69 -33 71q321 178 540 178q67 0 118.5 -24t80 -59t46 -81.5t23 -84.5t5.5 -75v-606q0 -91 110 -143l-110 -103q-126 50 -158 177q-77 -82 -176 -129.5t-209 -47.5q-13 0 -32 2t-50.5 9.5t-61.5 20t-62 36t-56 54.5t-39.5 79.5t-15.5 106.5 q0 48 8.5 89.5t35 87.5t69.5 81.5t117.5 65t174.5 44.5q204 27 285 47v129q0 17 -2 34t-9.5 42t-20 43t-37.5 31.5t-58 13.5q-49 0 -113 -16.5t-121 -39.5t-106.5 -46.5t-79.5 -38.5zM422 119q101 -7 206.5 50t172.5 140v242q-65 -13 -266 -43q-80 -13 -133.5 -36t-79 -55 t-34.5 -63t-9 -71q0 -49 17 -84t43.5 -50.5t46 -22t36.5 -7.5zM512 1548h135l320 -299h-187l-200 195l-201 -195h-186z" />
<glyph unicode="&#xe3;" horiz-adv-x="1150" d="M225 834l-34 68q-34 69 -33 71q321 178 540 178q67 0 118.5 -24t80 -59t46 -81.5t23 -84.5t5.5 -75v-606q0 -91 110 -143l-110 -103q-126 50 -158 177q-77 -82 -176 -129.5t-209 -47.5q-13 0 -32 2t-50.5 9.5t-61.5 20t-62 36t-56 54.5t-39.5 79.5t-15.5 106.5 q0 48 8.5 89.5t35 87.5t69.5 81.5t117.5 65t174.5 44.5q204 27 285 47v129q0 17 -2 34t-9.5 42t-20 43t-37.5 31.5t-58 13.5q-49 0 -113 -16.5t-121 -39.5t-106.5 -46.5t-79.5 -38.5zM422 119q101 -7 206.5 50t172.5 140v242q-65 -13 -266 -43q-80 -13 -133.5 -36t-79 -55 t-34.5 -63t-9 -71q0 -49 17 -84t43.5 -50.5t46 -22t36.5 -7.5zM948 1470l51 -102q-3 -4 -9.5 -11t-28 -24.5t-45 -31.5t-61.5 -26.5t-77 -14.5q-63 -4 -209 49q-130 49 -182 47q-52 -3 -95.5 -22.5t-61.5 -37.5l-17 -18l-51 102q3 4 9.5 11t28 25t45 32t61.5 26.5t77 14.5 q63 4 209 -49q130 -49 182 -47q33 2 63.5 10.5t49.5 19.5t33.5 21.5t21.5 17.5z" />
<glyph unicode="&#xe4;" horiz-adv-x="1150" d="M225 834l-34 68q-34 69 -33 71q321 178 540 178q67 0 118.5 -24t80 -59t46 -81.5t23 -84.5t5.5 -75v-606q0 -91 110 -143l-110 -103q-126 50 -158 177q-77 -82 -176 -129.5t-209 -47.5q-13 0 -32 2t-50.5 9.5t-61.5 20t-62 36t-56 54.5t-39.5 79.5t-15.5 106.5 q0 48 8.5 89.5t35 87.5t69.5 81.5t117.5 65t174.5 44.5q204 27 285 47v129q0 17 -2 34t-9.5 42t-20 43t-37.5 31.5t-58 13.5q-49 0 -113 -16.5t-121 -39.5t-106.5 -46.5t-79.5 -38.5zM422 119q101 -7 206.5 50t172.5 140v242q-65 -13 -266 -43q-80 -13 -133.5 -36t-79 -55 t-34.5 -63t-9 -71q0 -49 17 -84t43.5 -50.5t46 -22t36.5 -7.5zM268 1356q0 44 30.5 74t76.5 30q44 0 74 -30t30 -74q0 -46 -30 -76.5t-74 -30.5q-46 0 -76.5 30.5t-30.5 76.5zM680 1356q0 44 31 74t75 30q46 0 75.5 -30t29.5 -74q0 -46 -29.5 -76.5t-75.5 -30.5 q-44 0 -75 30.5t-31 76.5z" />
<glyph unicode="&#xe5;" horiz-adv-x="1150" d="M225 834l-34 68q-34 69 -33 71q321 178 540 178q67 0 118.5 -24t80 -59t46 -81.5t23 -84.5t5.5 -75v-606q0 -91 110 -143l-110 -103q-126 50 -158 177q-77 -82 -176 -129.5t-209 -47.5q-13 0 -32 2t-50.5 9.5t-61.5 20t-62 36t-56 54.5t-39.5 79.5t-15.5 106.5 q0 48 8.5 89.5t35 87.5t69.5 81.5t117.5 65t174.5 44.5q204 27 285 47v129q0 17 -2 34t-9.5 42t-20 43t-37.5 31.5t-58 13.5q-49 0 -113 -16.5t-121 -39.5t-106.5 -46.5t-79.5 -38.5zM422 119q101 -7 206.5 50t172.5 140v242q-65 -13 -266 -43q-80 -13 -133.5 -36t-79 -55 t-34.5 -63t-9 -71q0 -49 17 -84t43.5 -50.5t46 -22t36.5 -7.5zM387 1419q0 -82 57.5 -139t139.5 -57q78 0 133 57t55 139q0 78 -55 133.5t-133 55.5q-82 0 -139.5 -55.5t-57.5 -133.5q0 78 57.5 133.5t139.5 55.5q78 0 133 -55.5t55 -133.5q0 -82 -55 -139t-133 -57 q-82 0 -139.5 57t-57.5 139q0 78 57.5 133.5t139.5 55.5q78 0 133 -55.5t55 -133.5q0 -82 -55 -139t-133 -57q-82 0 -139.5 57t-57.5 139zM485 1419q0 -40 29.5 -69t69.5 -29q36 0 64 29.5t28 68.5q0 35 -28.5 63.5t-63.5 28.5q-39 0 -69 -28t-30 -64z" />
<glyph unicode="&#xe6;" horiz-adv-x="1835" d="M672 1151q174 0 241 -156q133 156 334 156q86 0 157 -24t117 -61t81 -87t53.5 -97t29.5 -97t14 -80.5t3 -53.5v-80h-768q-8 -204 76.5 -326t244.5 -122q30 0 45 0.5t57 10.5t75 29t80.5 60t91.5 99l104 -101q-33 -41 -67.5 -75t-62 -58.5t-61 -43.5t-54.5 -30.5 t-53 -19.5t-45.5 -11.5t-43 -5.5t-35 -2h-31.5q-264 0 -401 215q-191 -215 -426 -215q-13 0 -32 2t-50.5 9.5t-61.5 20t-62 36t-56 54.5t-39.5 79.5t-15.5 106.5q0 48 8.5 89.5t35 87.5t69.5 81.5t117.5 65t174.5 44.5q181 24 258 43v133q0 17 -2 34t-9.5 42t-20 43 t-37.5 31.5t-58 13.5q-49 0 -113 -16.5t-120.5 -39.5t-106 -46.5t-79.5 -38.5l-29 -16l-35 68q-34 69 -33 71q321 178 541 178zM422 119q101 -7 206.5 50t172.5 140q-27 80 -27 236q-103 -18 -239 -37q-80 -13 -133.5 -36t-79 -55t-34.5 -63t-9 -71q0 -49 17 -84t43.5 -50.5 t46 -22t36.5 -7.5zM1247 1004q-108 0 -181.5 -77t-109.5 -204h572q-8 48 -25.5 93t-48.5 89.5t-84.5 71.5t-122.5 27z" />
<glyph unicode="&#xe7;" horiz-adv-x="1040" d="M594 1151q65 0 124.5 -18.5t98 -45t68 -53t42.5 -44.5l13 -19l-109 -103q-3 5 -8.5 14t-27 31t-46.5 39t-68 31t-91 14q-55 0 -108 -28.5t-98 -82.5t-73 -143.5t-28 -199.5q0 -113 36 -207.5t104.5 -151.5t156.5 -57q70 0 130.5 25t143.5 104l107 -102 q-58 -59 -111.5 -97.5t-102.5 -55t-84.5 -21.5t-82.5 -5q-138 0 -246 75.5t-165.5 204.5t-57.5 288q0 123 29.5 225.5t77.5 172t111.5 118t130 70.5t134.5 22zM590 -252q0 83 -127 86h-39l96 166h109l-51 -106q143 -20 143 -146q0 -70 -54 -118t-163 -48q-43 0 -83 15.5 t-56.5 27.5t-41.5 34q-4 3 -6 5l58 74q62 -62 129 -62q43 0 64.5 21.5t21.5 50.5z" />
<glyph unicode="&#xe8;" horiz-adv-x="1181" d="M111 551q0 165 58.5 300.5t169.5 217.5t255 82q86 0 157 -24t117 -61t81 -87t53.5 -97t29.5 -97t14 -80.5t3 -53.5v-80h-768q-8 -204 76.5 -326t244.5 -122h30.5t36.5 3.5t46.5 10t50 21t58 35t60.5 54t66 75.5l105 -101q-33 -41 -67.5 -75t-62 -58.5t-61 -43.5 t-54.5 -30.5t-53 -19.5t-45.5 -11.5t-43 -5.5t-35 -2h-31.5q-96 0 -176.5 30t-138 83.5t-97.5 126.5t-59.5 157.5t-19.5 178.5zM594 1004q-108 0 -181.5 -77t-109.5 -204h571q-8 49 -25 93.5t-48.5 89t-85 71.5t-121.5 27zM162 1548h213l268 -299h-141z" />
<glyph unicode="&#xe9;" horiz-adv-x="1181" d="M111 551q0 165 58.5 300.5t169.5 217.5t255 82q86 0 157 -24t117 -61t81 -87t53.5 -97t29.5 -97t14 -80.5t3 -53.5v-80h-768q-8 -204 76.5 -326t244.5 -122h30.5t36.5 3.5t46.5 10t50 21t58 35t60.5 54t66 75.5l105 -101q-33 -41 -67.5 -75t-62 -58.5t-61 -43.5 t-54.5 -30.5t-53 -19.5t-45.5 -11.5t-43 -5.5t-35 -2h-31.5q-96 0 -176.5 30t-138 83.5t-97.5 126.5t-59.5 157.5t-19.5 178.5zM594 1004q-108 0 -181.5 -77t-109.5 -204h571q-8 49 -25 93.5t-48.5 89t-85 71.5t-121.5 27zM778 1548h213l-340 -299h-141z" />
<glyph unicode="&#xea;" horiz-adv-x="1181" d="M111 551q0 165 58.5 300.5t169.5 217.5t255 82q86 0 157 -24t117 -61t81 -87t53.5 -97t29.5 -97t14 -80.5t3 -53.5v-80h-768q-8 -204 76.5 -326t244.5 -122h30.5t36.5 3.5t46.5 10t50 21t58 35t60.5 54t66 75.5l105 -101q-33 -41 -67.5 -75t-62 -58.5t-61 -43.5 t-54.5 -30.5t-53 -19.5t-45.5 -11.5t-43 -5.5t-35 -2h-31.5q-96 0 -176.5 30t-138 83.5t-97.5 126.5t-59.5 157.5t-19.5 178.5zM594 1004q-108 0 -181.5 -77t-109.5 -204h571q-8 49 -25 93.5t-48.5 89t-85 71.5t-121.5 27zM510 1548h135l320 -299h-187l-200 195l-201 -195 h-187z" />
<glyph unicode="&#xeb;" horiz-adv-x="1181" d="M111 551q0 165 58.5 300.5t169.5 217.5t255 82q86 0 157 -24t117 -61t81 -87t53.5 -97t29.5 -97t14 -80.5t3 -53.5v-80h-768q-8 -204 76.5 -326t244.5 -122h30.5t36.5 3.5t46.5 10t50 21t58 35t60.5 54t66 75.5l105 -101q-33 -41 -67.5 -75t-62 -58.5t-61 -43.5 t-54.5 -30.5t-53 -19.5t-45.5 -11.5t-43 -5.5t-35 -2h-31.5q-96 0 -176.5 30t-138 83.5t-97.5 126.5t-59.5 157.5t-19.5 178.5zM594 1004q-108 0 -181.5 -77t-109.5 -204h571q-8 49 -25 93.5t-48.5 89t-85 71.5t-121.5 27zM266 1356q0 44 30.5 74t76.5 30q44 0 74 -30 t30 -74q0 -46 -30 -76.5t-74 -30.5q-46 0 -76.5 30.5t-30.5 76.5zM678 1356q0 44 31 74t75 30q46 0 75.5 -30t29.5 -74q0 -46 -29.5 -76.5t-75.5 -30.5q-44 0 -75 30.5t-31 76.5z" />
<glyph unicode="&#xec;" horiz-adv-x="514" d="M172 1126h170v-1126h-170v1126zM-127 1548h213l268 -299h-141z" />
<glyph unicode="&#xed;" horiz-adv-x="514" d="M172 1126h170v-1126h-170v1126zM428 1548h213l-340 -299h-141z" />
<glyph unicode="&#xee;" horiz-adv-x="589" d="M209 1126h170v-1126h-170v1126zM227 1548h135l320 -299h-186l-201 195l-201 -195h-186z" />
<glyph unicode="&#xef;" horiz-adv-x="512" d="M170 1126h170v-1126h-170v1126zM-55 1356q0 44 30 74t76 30q44 0 74.5 -30t30.5 -74q0 -46 -30.5 -76.5t-74.5 -30.5q-46 0 -76 30.5t-30 76.5zM356 1356q0 44 31 74t76 30t74.5 -29.5t29.5 -74.5q0 -46 -29.5 -76.5t-74.5 -30.5t-76 31t-31 76z" />
<glyph unicode="&#xf0;" horiz-adv-x="1247" d="M522 1577q60 0 115 -12l68 104l106 -70l-53 -81q92 -49 165 -138.5t116.5 -196.5t66 -220.5t22.5 -223.5q0 -360 -138.5 -557.5t-393.5 -197.5q-106 0 -191.5 35t-139 89.5t-89.5 124.5t-50.5 135.5t-14.5 127.5q0 250 128.5 411.5t335.5 161.5q197 0 367 -154 q-27 161 -95 289.5t-175 184.5l-125 -193l-107 66l105 161q-8 2 -23 2q-54 0 -102 -12.5t-72.5 -25.5t-58.5 -35l-74 127q45 30 77.5 47t95 34t134.5 17zM596 135q165 0 258.5 147.5t101.5 415.5q-172 220 -381 220q-128 0 -210 -120t-82 -302q0 -43 9.5 -89.5t32.5 -96 t57.5 -87.5t90 -63t123.5 -25z" />
<glyph unicode="&#xf1;" d="M344 0h-172v1126h172v-217q107 103 235.5 172.5t256.5 69.5q260 0 260 -350v-801h-172v801q0 178 -88 178q-229 0 -492 -268v-711zM1001 1470l52 -102q-3 -4 -9.5 -11t-28 -24.5t-45.5 -31.5t-62 -26.5t-77 -14.5q-62 -4 -208 49q-130 49 -183 47q-52 -3 -95.5 -22.5 t-60.5 -37.5l-18 -18l-51 102q3 4 9.5 11t28 25t45 32t61.5 26.5t77 14.5q63 4 209 -49q130 -49 182 -47q33 2 63.5 10.5t49.5 19.5t33.5 21.5t20.5 17.5z" />
<glyph unicode="&#xf2;" horiz-adv-x="1200" d="M111 563q0 125 27.5 226t73.5 167.5t109.5 111t133 64t145.5 19.5q96 0 181 -32.5t155.5 -100t112 -184.5t41.5 -271q0 -126 -27.5 -227.5t-74 -167.5t-110 -110.5t-132.5 -63.5t-146 -19t-145.5 18t-132.5 61.5t-110 109.5t-73.5 168t-27.5 231zM918 563 q0 114 -27.5 202.5t-73.5 140.5t-101 78t-116 26t-115.5 -24.5t-101 -75t-73.5 -140t-27 -207.5q0 -117 27 -206t73.5 -140.5t101 -76.5t115.5 -25t116 24.5t101 75t73.5 140t27.5 208.5zM195 1548h213l268 -299h-141z" />
<glyph unicode="&#xf3;" horiz-adv-x="1200" d="M111 563q0 125 27.5 226t73.5 167.5t109.5 111t133 64t145.5 19.5q96 0 181 -32.5t155.5 -100t112 -184.5t41.5 -271q0 -126 -27.5 -227.5t-74 -167.5t-110 -110.5t-132.5 -63.5t-146 -19t-145.5 18t-132.5 61.5t-110 109.5t-73.5 168t-27.5 231zM918 563 q0 114 -27.5 202.5t-73.5 140.5t-101 78t-116 26t-115.5 -24.5t-101 -75t-73.5 -140t-27 -207.5q0 -117 27 -206t73.5 -140.5t101 -76.5t115.5 -25t116 24.5t101 75t73.5 140t27.5 208.5zM791 1548h213l-340 -299h-142z" />
<glyph unicode="&#xf4;" horiz-adv-x="1200" d="M111 563q0 125 27.5 226t73.5 167.5t109.5 111t133 64t145.5 19.5q96 0 181 -32.5t155.5 -100t112 -184.5t41.5 -271q0 -126 -27.5 -227.5t-74 -167.5t-110 -110.5t-132.5 -63.5t-146 -19t-145.5 18t-132.5 61.5t-110 109.5t-73.5 168t-27.5 231zM918 563 q0 114 -27.5 202.5t-73.5 140.5t-101 78t-116 26t-115.5 -24.5t-101 -75t-73.5 -140t-27 -207.5q0 -117 27 -206t73.5 -140.5t101 -76.5t115.5 -25t116 24.5t101 75t73.5 140t27.5 208.5zM530 1548h136l319 -299h-186l-201 195l-201 -195h-186z" />
<glyph unicode="&#xf5;" horiz-adv-x="1200" d="M111 563q0 125 27.5 226t73.5 167.5t109.5 111t133 64t145.5 19.5q96 0 181 -32.5t155.5 -100t112 -184.5t41.5 -271q0 -126 -27.5 -227.5t-74 -167.5t-110 -110.5t-132.5 -63.5t-146 -19t-145.5 18t-132.5 61.5t-110 109.5t-73.5 168t-27.5 231zM918 563 q0 114 -27.5 202.5t-73.5 140.5t-101 78t-116 26t-115.5 -24.5t-101 -75t-73.5 -140t-27 -207.5q0 -117 27 -206t73.5 -140.5t101 -76.5t115.5 -25t116 24.5t101 75t73.5 140t27.5 208.5zM967 1470l51 -102q-3 -4 -9.5 -11t-28 -24.5t-45 -31.5t-61.5 -26.5t-77 -14.5 q-63 -4 -209 49q-130 49 -182 47q-52 -3 -95.5 -22.5t-61.5 -37.5l-18 -18l-51 102q3 4 9.5 11t28 25t45 32t61.5 26.5t77 14.5q63 4 209 -49q130 -49 183 -47q33 2 63.5 10.5t49.5 19.5t33.5 21.5t20.5 17.5z" />
<glyph unicode="&#xf6;" horiz-adv-x="1200" d="M111 563q0 125 27.5 226t73.5 167.5t109.5 111t133 64t145.5 19.5q96 0 181 -32.5t155.5 -100t112 -184.5t41.5 -271q0 -126 -27.5 -227.5t-74 -167.5t-110 -110.5t-132.5 -63.5t-146 -19t-145.5 18t-132.5 61.5t-110 109.5t-73.5 168t-27.5 231zM918 563 q0 114 -27.5 202.5t-73.5 140.5t-101 78t-116 26t-115.5 -24.5t-101 -75t-73.5 -140t-27 -207.5q0 -117 27 -206t73.5 -140.5t101 -76.5t115.5 -25t116 24.5t101 75t73.5 140t27.5 208.5zM287 1356q0 44 30 74t76 30q44 0 74.5 -30t30.5 -74q0 -46 -30.5 -76.5t-74.5 -30.5 q-46 0 -76 30.5t-30 76.5zM698 1356q0 44 31 74t76 30t74.5 -29.5t29.5 -74.5q0 -46 -29.5 -76.5t-74.5 -30.5t-76 31t-31 76z" />
<glyph unicode="&#xf8;" horiz-adv-x="1200" d="M111 563q0 125 27.5 226t73.5 167.5t109.5 111t133 64t145.5 19.5q108 0 199 -39l41 80h159l-81 -158q172 -155 172 -471q0 -126 -27.5 -227.5t-74 -167.5t-110 -110.5t-132.5 -63.5t-146 -19q-112 0 -207 39l-41 -80h-159l79 158q-161 151 -161 471zM918 563 q0 191 -80 314l-375 -727q60 -35 137 -35q61 0 116 24.5t101 75t73.5 140t27.5 208.5zM283 563q0 -192 73 -309l373 723q-68 33 -129 33t-115.5 -24.5t-101 -75t-73.5 -140t-27 -207.5z" />
<glyph unicode="&#xf9;" d="M401 141q229 0 492 273v712h172v-1126h-172v199q-103 -98 -233 -161t-259 -63q-260 0 -260 351v800h172v-800q0 -185 88 -185zM199 1548h213l268 -299h-141z" />
<glyph unicode="&#xfa;" d="M401 141q229 0 492 273v712h172v-1126h-172v199q-103 -98 -233 -161t-259 -63q-260 0 -260 351v800h172v-800q0 -185 88 -185zM795 1548h213l-340 -299h-142z" />
<glyph unicode="&#xfb;" d="M401 141q229 0 492 273v712h172v-1126h-172v199q-103 -98 -233 -161t-259 -63q-260 0 -260 351v800h172v-800q0 -185 88 -185zM535 1548h135l319 -299h-186l-201 195l-201 -195h-186z" />
<glyph unicode="&#xfc;" d="M401 141q229 0 492 273v712h172v-1126h-172v199q-103 -98 -233 -161t-259 -63q-260 0 -260 351v800h172v-800q0 -185 88 -185zM291 1356q0 44 30 74t76 30q44 0 74.5 -30t30.5 -74q0 -46 -30.5 -76.5t-74.5 -30.5q-46 0 -76 30.5t-30 76.5zM702 1356q0 44 31 74t76 30 t74.5 -29.5t29.5 -74.5q0 -46 -29.5 -76.5t-74.5 -30.5t-76 31t-31 76z" />
<glyph unicode="&#xfd;" horiz-adv-x="1050" d="M33 1126h182l305 -790q306 751 352 790h195q-32 -31 -67.5 -99t-140 -314t-327.5 -793q-25 -63 -40.5 -98.5t-42 -88t-57.5 -94t-68 -77.5q-121 -116 -291 -125l-43 149q85 5 131.5 27t85.5 61q39 38 73.5 97.5t90.5 193.5l55 137zM647 1548h213l-340 -299h-141z" />
<glyph unicode="&#xfe;" horiz-adv-x="1273" d="M340 -532h-168v2109h168v-639q75 97 181.5 155.5t236.5 57.5q91 -1 168.5 -48t128.5 -126t79.5 -181t28.5 -214q0 -286 -126 -446.5t-347 -160.5q-75 0 -168 42.5t-182 113.5v-663zM758 983q-75 1 -144 -25t-121.5 -70t-87.5 -84.5t-65 -86.5v-398q76 -76 174 -126 t176 -50q138 0 219.5 117t81.5 322q0 105 -28 195t-82 147.5t-123 58.5z" />
<glyph unicode="&#xff;" horiz-adv-x="1050" d="M33 1126h182l305 -790q306 751 352 790h195q-32 -31 -67.5 -99t-140 -314t-327.5 -793q-25 -63 -40.5 -98.5t-42 -88t-57.5 -94t-68 -77.5q-121 -116 -291 -125l-43 149q85 5 131.5 27t85.5 61q39 38 73.5 97.5t90.5 193.5l55 137zM207 1356q0 44 30 74t76 30 q44 0 74.5 -30t30.5 -74q0 -46 -30.5 -76.5t-74.5 -30.5q-46 0 -76 30.5t-30 76.5zM618 1356q0 44 31 74t76 30t74.5 -29.5t29.5 -74.5q0 -46 -29.5 -76.5t-74.5 -30.5t-76 31t-31 76z" />
<glyph unicode="&#x102;" horiz-adv-x="1449" d="M631 1577h188l582 -1577h-191l-198 537h-576l-196 -537h-191zM725 1376q-3 -55 -14 -98l-217 -586h460l-217 586q-12 47 -12 98zM401 1980h125q6 -68 65 -121t140 -53q72 0 128.5 53t64.5 121h123q-16 -124 -104 -214.5t-212 -90.5q-130 0 -222 90.5t-108 214.5z" />
<glyph unicode="&#x103;" horiz-adv-x="1150" d="M225 834l-34 68q-34 69 -33 71q321 178 540 178q67 0 118.5 -24t80 -59t46 -81.5t23 -84.5t5.5 -75v-606q0 -91 110 -143l-110 -103q-126 50 -158 177q-77 -82 -176 -129.5t-209 -47.5q-13 0 -32 2t-50.5 9.5t-61.5 20t-62 36t-56 54.5t-39.5 79.5t-15.5 106.5 q0 48 8.5 89.5t35 87.5t69.5 81.5t117.5 65t174.5 44.5q204 27 285 47v129q0 17 -2 34t-9.5 42t-20 43t-37.5 31.5t-58 13.5q-49 0 -113 -16.5t-121 -39.5t-106.5 -46.5t-79.5 -38.5zM422 119q101 -7 206.5 50t172.5 140v242q-65 -13 -266 -43q-80 -13 -133.5 -36t-79 -55 t-34.5 -63t-9 -71q0 -49 17 -84t43.5 -50.5t46 -22t36.5 -7.5zM252 1536h125q6 -68 65 -121t140 -53q72 0 128 53t64 121h123q-16 -124 -103.5 -214.5t-211.5 -90.5q-130 0 -222 90.5t-108 214.5z" />
<glyph unicode="&#x104;" horiz-adv-x="1449" d="M631 1577h188l582 -1577h-191l-198 537h-576l-196 -537h-191zM725 1376q-3 -55 -14 -98l-217 -586h460l-217 586q-12 47 -12 98zM1128 -141q0 35 17 73t41 67.5t48 54t41 37.5l17 13l66 -41q-5 -3 -13 -9.5t-29 -26.5t-37 -42t-29 -55.5t-13 -66.5q0 -34 27 -53t59 -19 q68 0 113 55l82 -73q-82 -92 -195 -92q-73 0 -134 47t-61 131z" />
<glyph unicode="&#x105;" horiz-adv-x="1150" d="M225 834l-34 68q-34 69 -33 71q321 178 540 178q67 0 118.5 -24t80 -59t46 -81.5t23 -84.5t5.5 -75v-606q0 -91 110 -143l-110 -103q-126 50 -158 177q-77 -82 -176 -129.5t-209 -47.5q-13 0 -32 2t-50.5 9.5t-61.5 20t-62 36t-56 54.5t-39.5 79.5t-15.5 106.5 q0 48 8.5 89.5t35 87.5t69.5 81.5t117.5 65t174.5 44.5q204 27 285 47v129q0 17 -2 34t-9.5 42t-20 43t-37.5 31.5t-58 13.5q-49 0 -113 -16.5t-121 -39.5t-106.5 -46.5t-79.5 -38.5zM422 119q101 -7 206.5 50t172.5 140v242q-65 -13 -266 -43q-80 -13 -133.5 -36t-79 -55 t-34.5 -63t-9 -71q0 -49 17 -84t43.5 -50.5t46 -22t36.5 -7.5zM692 -141q0 35 17 73t41 67.5t48 54t41 37.5l17 13l66 -41q-5 -3 -13 -9.5t-29 -26.5t-37 -42t-29 -55.5t-13 -66.5q0 -34 27 -53t59 -19q67 0 112 55l82 -73q-82 -92 -194 -92q-73 0 -134 47t-61 131z" />
<glyph unicode="&#x106;" horiz-adv-x="1314" d="M936 1978h213l-340 -299h-141zM1214 1393l-118 -115q-4 6 -12 17t-38 38t-65.5 48t-95.5 38t-127 17q-86 0 -166 -44t-144.5 -127.5t-103.5 -219t-39 -302.5q0 -255 133 -431t320 -181q43 -1 84 4.5t74 16t64 24t55 29t44.5 30.5t35.5 29.5t25 25t16 16.5l5 7l113 -112 q-10 -8 -37 -35.5t-51 -50.5t-69.5 -53t-93.5 -49.5t-120.5 -32.5t-154.5 -11q-179 5 -322 105t-224 275.5t-81 393.5q0 206 53.5 373.5t143.5 273t203.5 162t238.5 56.5q68 0 129.5 -12t106 -31t82.5 -42t62.5 -45.5t41.5 -41.5t24 -31z" />
<glyph unicode="&#x107;" horiz-adv-x="1040" d="M594 1151q65 0 124.5 -18.5t98 -45t68 -53t42.5 -44.5l13 -19l-109 -103q-3 5 -8.5 14t-27 31t-46.5 39t-68 31t-91 14q-55 0 -108 -28.5t-98 -82.5t-73 -143.5t-28 -199.5q0 -113 36 -207.5t104.5 -151.5t156.5 -57q70 0 130.5 25t143.5 104l107 -102 q-58 -59 -111.5 -97.5t-102.5 -55t-84.5 -21.5t-82.5 -5q-138 0 -246 75.5t-165.5 204.5t-57.5 288q0 123 29.5 225.5t77.5 172t111.5 118t130 70.5t134.5 22zM743 1548h213l-340 -299h-141z" />
<glyph unicode="&#x108;" horiz-adv-x="1314" d="M1214 1393l-118 -115q-4 6 -12 17t-38 38t-65.5 48t-95.5 38t-127 17q-86 0 -166 -44t-144.5 -127.5t-103.5 -219t-39 -302.5q0 -255 133 -431t320 -181q43 -1 84 4.5t74 16t64 24t55 29t44.5 30.5t35.5 29.5t25 25t16 16.5l5 7l113 -112q-10 -8 -37 -35.5t-51 -50.5 t-69.5 -53t-93.5 -49.5t-120.5 -32.5t-154.5 -11q-179 5 -322 105t-224 275.5t-81 393.5q0 206 53.5 373.5t143.5 273t203.5 162t238.5 56.5q68 0 129.5 -12t106 -31t82.5 -42t62.5 -45.5t41.5 -41.5t24 -31zM690 1978h135l320 -299h-187l-200 195l-201 -195h-186z" />
<glyph unicode="&#x109;" horiz-adv-x="1040" d="M594 1151q65 0 124.5 -18.5t98 -45t68 -53t42.5 -44.5l13 -19l-109 -103q-3 5 -8.5 14t-27 31t-46.5 39t-68 31t-91 14q-55 0 -108 -28.5t-98 -82.5t-73 -143.5t-28 -199.5q0 -113 36 -207.5t104.5 -151.5t156.5 -57q70 0 130.5 25t143.5 104l107 -102 q-58 -59 -111.5 -97.5t-102.5 -55t-84.5 -21.5t-82.5 -5q-138 0 -246 75.5t-165.5 204.5t-57.5 288q0 123 29.5 225.5t77.5 172t111.5 118t130 70.5t134.5 22zM518 1548h135l320 -299h-187l-200 195l-201 -195h-186z" />
<glyph unicode="&#x10c;" horiz-adv-x="1314" d="M1214 1393l-118 -115q-4 6 -12 17t-38 38t-65.5 48t-95.5 38t-127 17q-86 0 -166 -44t-144.5 -127.5t-103.5 -219t-39 -302.5q0 -255 133 -431t320 -181q43 -1 84 4.5t74 16t64 24t55 29t44.5 30.5t35.5 29.5t25 25t16 16.5l5 7l113 -112q-10 -8 -37 -35.5t-51 -50.5 t-69.5 -53t-93.5 -49.5t-120.5 -32.5t-154.5 -11q-179 5 -322 105t-224 275.5t-81 393.5q0 206 53.5 373.5t143.5 273t203.5 162t238.5 56.5q68 0 129.5 -12t106 -31t82.5 -42t62.5 -45.5t41.5 -41.5t24 -31zM811 1679h-135l-320 299h187l200 -194l201 194h186z" />
<glyph unicode="&#x10d;" horiz-adv-x="1040" d="M594 1151q65 0 124.5 -18.5t98 -45t68 -53t42.5 -44.5l13 -19l-109 -103q-3 5 -8.5 14t-27 31t-46.5 39t-68 31t-91 14q-55 0 -108 -28.5t-98 -82.5t-73 -143.5t-28 -199.5q0 -113 36 -207.5t104.5 -151.5t156.5 -57q70 0 130.5 25t143.5 104l107 -102 q-58 -59 -111.5 -97.5t-102.5 -55t-84.5 -21.5t-82.5 -5q-138 0 -246 75.5t-165.5 204.5t-57.5 288q0 123 29.5 225.5t77.5 172t111.5 118t130 70.5t134.5 22zM649 1239h-135l-319 299h186l201 -195l200 195h187z" />
<glyph unicode="&#x10e;" horiz-adv-x="1458" d="M352 0h-180v1550q295 37 424 37q76 0 141 -6.5t134.5 -22.5t126 -45t110.5 -71.5t94.5 -104.5t71.5 -141t47 -185t16 -233q0 -365 -176.5 -571.5t-466.5 -206.5h-342zM1157 778q0 122 -15.5 217.5t-54.5 180t-101.5 140t-159.5 87t-226 31.5q-46 0 -91 -3t-70.5 -6.5 t-54 -8t-32.5 -5.5v-1255h342q203 0 333 168t130 454zM707 1677h-136l-319 299h186l201 -194l201 194h186z" />
<glyph unicode="&#x114;" horiz-adv-x="1146" d="M1067 0h-895v1577h651q59 0 113 2.5t78 4.5l24 3v-164h-686v-528h584v-156h-584v-583h500q59 0 113 2.5t78 5.5l24 2v-166zM283 1980h125q6 -69 64.5 -121.5t139.5 -52.5q72 0 128.5 53t64.5 121h123q-16 -124 -104 -214.5t-212 -90.5q-130 0 -221.5 90.5t-107.5 214.5z " />
<glyph unicode="&#x115;" horiz-adv-x="1181" d="M111 551q0 165 58.5 300.5t169.5 217.5t255 82q86 0 157 -24t117 -61t81 -87t53.5 -97t29.5 -97t14 -80.5t3 -53.5v-80h-768q-8 -204 76.5 -326t244.5 -122h30.5t36.5 3.5t46.5 10t50 21t58 35t60.5 54t66 75.5l105 -101q-33 -41 -67.5 -75t-62 -58.5t-61 -43.5 t-54.5 -30.5t-53 -19.5t-45.5 -11.5t-43 -5.5t-35 -2h-31.5q-96 0 -176.5 30t-138 83.5t-97.5 126.5t-59.5 157.5t-19.5 178.5zM594 1004q-108 0 -181.5 -77t-109.5 -204h571q-8 49 -25 93.5t-48.5 89t-85 71.5t-121.5 27zM268 1536h125q6 -68 65 -121t140 -53 q72 0 128.5 53t64.5 121h122q-16 -124 -103.5 -214.5t-211.5 -90.5q-130 0 -222 90.5t-108 214.5z" />
<glyph unicode="&#x118;" horiz-adv-x="1146" d="M1067 0h-895v1577h651q59 0 113 2.5t78 4.5l24 3v-164h-686v-528h584v-156h-584v-583h500q59 0 113 2.5t78 5.5l24 2v-166zM717 -141q0 35 17 73t41 67.5t48 54t41 37.5l17 13l65 -41q-5 -3 -13 -9.5t-29 -26.5t-37 -42t-29 -55.5t-13 -66.5q0 -34 27 -53t59 -19 q68 0 113 55l82 -73q-82 -92 -195 -92q-73 0 -133.5 47t-60.5 131z" />
<glyph unicode="&#x119;" horiz-adv-x="1181" d="M111 551q0 165 58.5 300.5t169.5 217.5t255 82q86 0 157 -24t117 -61t81 -87t53.5 -97t29.5 -97t14 -80.5t3 -53.5v-80h-768q-8 -204 76.5 -326t244.5 -122h30.5t36.5 3.5t46.5 10t50 21t58 35t60.5 54t66 75.5l105 -101q-33 -41 -67.5 -75t-62 -58.5t-61 -43.5 t-54.5 -30.5t-53 -19.5t-45.5 -11.5t-43 -5.5t-35 -2h-31.5q-96 0 -176.5 30t-138 83.5t-97.5 126.5t-59.5 157.5t-19.5 178.5zM594 1004q-108 0 -181.5 -77t-109.5 -204h571q-8 49 -25 93.5t-48.5 89t-85 71.5t-121.5 27zM506 -141q0 35 17 73t41 67.5t48 54t41 37.5l17 13 l65 -41q-5 -3 -13 -9.5t-29 -26.5t-37 -42t-29 -55.5t-13 -66.5q0 -34 27 -53t59 -19q68 0 113 55l82 -73q-82 -92 -195 -92q-73 0 -133.5 47t-60.5 131z" />
<glyph unicode="&#x11a;" horiz-adv-x="1146" d="M1067 0h-895v1577h651q59 0 113 2.5t78 4.5l24 3v-164h-686v-528h584v-156h-584v-583h500q59 0 113 2.5t78 5.5l24 2v-166zM692 1677h-135l-319 299h186l201 -194l200 194h187z" />
<glyph unicode="&#x11b;" horiz-adv-x="1181" d="M111 551q0 165 58.5 300.5t169.5 217.5t255 82q86 0 157 -24t117 -61t81 -87t53.5 -97t29.5 -97t14 -80.5t3 -53.5v-80h-768q-8 -204 76.5 -326t244.5 -122h30.5t36.5 3.5t46.5 10t50 21t58 35t60.5 54t66 75.5l105 -101q-33 -41 -67.5 -75t-62 -58.5t-61 -43.5 t-54.5 -30.5t-53 -19.5t-45.5 -11.5t-43 -5.5t-35 -2h-31.5q-96 0 -176.5 30t-138 83.5t-97.5 126.5t-59.5 157.5t-19.5 178.5zM594 1004q-108 0 -181.5 -77t-109.5 -204h571q-8 49 -25 93.5t-48.5 89t-85 71.5t-121.5 27zM657 1239h-135l-319 299h186l201 -195l201 195h186 z" />
<glyph unicode="&#x11c;" horiz-adv-x="1531" d="M1358 774v-473q0 -67 -43.5 -129t-113.5 -105.5t-158.5 -70t-178.5 -27.5q-125 0 -231 26.5t-181 71.5t-134 108.5t-95 132.5t-60 148t-33 151.5t-9 146.5q0 154 32.5 284.5t89 221.5t128.5 160t156 109t165 59.5t162 19.5q65 0 127.5 -13.5t110 -34.5t90 -47t71.5 -52 t51 -47t32 -34l10 -14l-121 -119q-5 8 -15.5 22t-45.5 49.5t-74.5 62.5t-101 49t-126.5 22q-57 0 -118 -17t-124 -51t-118.5 -91.5t-99.5 -132t-69.5 -179.5t-25.5 -227q0 -57 6.5 -113t24 -119t44 -117.5t70 -105.5t99 -87t134 -57.5t171.5 -21.5q61 0 138 26t134.5 70.5 t57.5 89.5v295h-185h-22h-27.5t-25.5 1t-30 2.5t-27 4.5t-29 8t-25 11v147q58 -14 193 -14h350zM774 1976h135l320 -299h-187l-200 195l-201 -195h-186z" />
<glyph unicode="&#x11d;" horiz-adv-x="1255" d="M330 795q0 -67 19.5 -116.5t47 -76t67.5 -42.5t72 -20.5t68 -4.5q34 0 68 6t72 24t66.5 45.5t47.5 75t19 109.5q0 48 -18.5 88t-48 65.5t-66.5 43t-72.5 25t-67.5 7.5t-67.5 -7.5t-73 -25t-66.5 -43t-48 -65.5t-19 -88zM188 250q0 95 146 213q-174 98 -174 332 q0 73 30 135t77.5 102.5t107.5 69t118 41t111 12.5q64 0 137 -18q63 57 145.5 88.5t164.5 31.5q55 0 123 -20l-29 -143q-37 12 -94 12q-85 0 -166 -33q162 -103 162 -278q0 -93 -30.5 -165.5t-76.5 -114t-108 -68t-117 -35.5t-111 -9q-64 0 -123 11q-121 -86 -121 -164 q4 -4 25.5 -7t54 -4.5t62.5 -2.5t62.5 -2t41.5 -1q76 -4 137 -11t132 -21.5t123.5 -38.5t97.5 -59t68.5 -87t23.5 -118q0 -95 -35 -177t-104 -146t-181 -101t-256 -37q-127 0 -240.5 49t-182 133t-68.5 180q1 65 13 114t38 86.5t52 61.5t69 56q-105 46 -105 133zM612 -414 q197 0 301.5 89.5t104.5 222.5q0 36 -17 64.5t-50 47.5t-69.5 32t-88.5 21t-93 12t-96 7q-18 0 -68 1t-79 1q-44 -27 -68 -46t-50.5 -52t-38 -78.5t-11.5 -108.5q0 -57 48 -107t122.5 -78t152.5 -28zM512 1548h135l320 -299h-187l-200 195l-201 -195h-186z" />
<glyph unicode="&#x11e;" horiz-adv-x="1531" d="M1358 774v-473q0 -67 -43.5 -129t-113.5 -105.5t-158.5 -70t-178.5 -27.5q-125 0 -231 26.5t-181 71.5t-134 108.5t-95 132.5t-60 148t-33 151.5t-9 146.5q0 154 32.5 284.5t89 221.5t128.5 160t156 109t165 59.5t162 19.5q65 0 127.5 -13.5t110 -34.5t90 -47t71.5 -52 t51 -47t32 -34l10 -14l-121 -119q-5 8 -15.5 22t-45.5 49.5t-74.5 62.5t-101 49t-126.5 22q-57 0 -118 -17t-124 -51t-118.5 -91.5t-99.5 -132t-69.5 -179.5t-25.5 -227q0 -57 6.5 -113t24 -119t44 -117.5t70 -105.5t99 -87t134 -57.5t171.5 -21.5q61 0 138 26t134.5 70.5 t57.5 89.5v295h-185h-22h-27.5t-25.5 1t-30 2.5t-27 4.5t-29 8t-25 11v147q58 -14 193 -14h350zM504 1985h125q6 -69 65 -122t140 -53q72 0 128 53.5t64 121.5h123q-16 -124 -103.5 -215t-211.5 -91q-130 0 -222 91t-108 215z" />
<glyph unicode="&#x11f;" horiz-adv-x="1255" d="M330 795q0 -67 19.5 -116.5t47 -76t67.5 -42.5t72 -20.5t68 -4.5q34 0 68 6t72 24t66.5 45.5t47.5 75t19 109.5q0 48 -18.5 88t-48 65.5t-66.5 43t-72.5 25t-67.5 7.5t-67.5 -7.5t-73 -25t-66.5 -43t-48 -65.5t-19 -88zM188 250q0 95 146 213q-174 98 -174 332 q0 73 30 135t77.5 102.5t107.5 69t118 41t111 12.5q64 0 137 -18q63 57 145.5 88.5t164.5 31.5q55 0 123 -20l-29 -143q-37 12 -94 12q-85 0 -166 -33q162 -103 162 -278q0 -93 -30.5 -165.5t-76.5 -114t-108 -68t-117 -35.5t-111 -9q-64 0 -123 11q-121 -86 -121 -164 q4 -4 25.5 -7t54 -4.5t62.5 -2.5t62.5 -2t41.5 -1q76 -4 137 -11t132 -21.5t123.5 -38.5t97.5 -59t68.5 -87t23.5 -118q0 -95 -35 -177t-104 -146t-181 -101t-256 -37q-127 0 -240.5 49t-182 133t-68.5 180q1 65 13 114t38 86.5t52 61.5t69 56q-105 46 -105 133zM612 -414 q197 0 301.5 89.5t104.5 222.5q0 36 -17 64.5t-50 47.5t-69.5 32t-88.5 21t-93 12t-96 7q-18 0 -68 1t-79 1q-44 -27 -68 -46t-50.5 -52t-38 -78.5t-11.5 -108.5q0 -57 48 -107t122.5 -78t152.5 -28zM262 1536h125q6 -68 65 -121t140 -53q72 0 128 53t64 121h123 q-16 -124 -103.5 -214.5t-211.5 -90.5q-130 0 -222 90.5t-108 214.5z" />
<glyph unicode="&#x124;" horiz-adv-x="1515" d="M352 0h-180v1577h180v-684h811v684h180v-1577h-180v737h-811v-737zM700 1976h136l319 -299h-186l-201 195l-201 -195h-186z" />
<glyph unicode="&#x125;" d="M344 0h-172v1679h172v-770q107 103 235.5 172.5t256.5 69.5q260 0 260 -350v-801h-172v801q0 178 -88 178q-235 0 -492 -268v-711zM702 1548h136l319 -299h-186l-201 195l-201 -195h-186z" />
<glyph unicode="&#x128;" horiz-adv-x="524" d="M352 0h-180v1577h180v-1577zM631 1880l51 -102q-3 -4 -9.5 -11t-28 -25t-45 -32t-61.5 -26.5t-77 -14.5q-63 -4 -209 49q-130 49 -182 47q-52 -3 -95.5 -22t-60.5 -37l-18 -18l-52 102q3 4 9.5 11t28 24.5t45.5 31.5t62 26.5t77 14.5q62 4 208 -49q130 -49 183 -47 q53 3 96.5 22.5t60.5 37.5z" />
<glyph unicode="&#x129;" horiz-adv-x="514" d="M172 1126h170v-1126h-170v1126zM625 1470l51 -102q-3 -4 -9.5 -11t-28 -24.5t-45 -31.5t-61.5 -26.5t-77 -14.5q-63 -4 -209 49q-130 49 -183 47q-52 -3 -95.5 -22.5t-61.5 -37.5l-17 -18l-51 102q3 4 9.5 11t28 25t45 32t61.5 26.5t77 14.5q63 4 209 -49 q130 -49 183 -47q33 2 63.5 10.5t49.5 19.5t33.5 21.5t20.5 17.5z" />
<glyph unicode="&#x12c;" horiz-adv-x="524" d="M352 0h-180v1577h180v-1577zM-59 1978h125q6 -69 64.5 -121.5t139.5 -52.5q72 0 128.5 53t64.5 121h123q-16 -124 -104 -214.5t-212 -90.5q-130 0 -221.5 90.5t-107.5 214.5z" />
<glyph unicode="&#x12d;" horiz-adv-x="514" d="M172 1126h170v-1126h-170v1126zM-66 1536h125q6 -68 65 -121t140 -53q72 0 128.5 53t64.5 121h123q-16 -124 -104 -214.5t-212 -90.5q-130 0 -222 90.5t-108 214.5z" />
<glyph unicode="&#x12e;" horiz-adv-x="524" d="M352 0h-180v1577h180v-1577zM59 -141q0 35 17 73t41 67.5t48 54t41 37.5l17 13l66 -41q-5 -3 -13 -9.5t-29 -26.5t-37 -42t-29 -55.5t-13 -66.5q0 -34 27 -53t59 -19q68 0 113 55l82 -73q-82 -92 -195 -92q-73 0 -134 47t-61 131z" />
<glyph unicode="&#x12f;" horiz-adv-x="555" d="M193 1126h169v-1126h-169v1126zM172 1473q0 44 30.5 74t76.5 30q44 0 74 -30t30 -74q0 -46 -30 -76.5t-74 -30.5q-46 0 -76.5 30.5t-30.5 76.5zM84 -141q0 35 17 73t41 67.5t48 54t41 37.5l17 13l65 -41q-5 -3 -13 -9.5t-28.5 -26.5t-36.5 -42t-29 -55.5t-13 -66.5 q0 -34 27 -53t59 -19q67 0 112 55l82 -73q-82 -92 -194 -92q-73 0 -134 47t-61 131z" />
<glyph unicode="&#x131;" horiz-adv-x="514" d="M172 1126h170v-1126h-170v1126z" />
<glyph unicode="&#x134;" horiz-adv-x="581" d="M231 1577h181v-1612q0 -94 -25.5 -173.5t-63.5 -130.5t-91 -92t-96.5 -62t-92.5 -37l-66 161q50 14 93 39t80.5 64t59 98.5t21.5 132.5v1612zM258 1974h135l320 -299h-187l-200 195l-201 -195h-186z" />
<glyph unicode="&#x135;" horiz-adv-x="450" d="M88 1126h170v-1214q0 -179 -87.5 -308.5t-193.5 -166.5l-51 162q62 8 112 101t50 212v1214zM100 1548h136l319 -299h-186l-201 195l-201 -195h-186z" />
<glyph unicode="&#x143;" horiz-adv-x="1478" d="M915 1978h213l-340 -299h-141zM352 0h-180v1577h180v-2l762 -1239l14 -29l-2 29v1241h181v-1577h-181v2l-761 1243l-15 29l2 -29v-1245z" />
<glyph unicode="&#x144;" d="M344 0h-172v1126h172v-217q107 103 235.5 172.5t256.5 69.5q260 0 260 -350v-801h-172v801q0 178 -88 178q-229 0 -492 -268v-711zM788 1548h213l-339 -299h-142z" />
<glyph unicode="&#x147;" horiz-adv-x="1478" d="M352 0h-180v1577h180v-2l762 -1239l14 -29l-2 29v1241h181v-1577h-181v2l-761 1243l-15 29l2 -29v-1245zM807 1683h-135l-320 299h187l200 -194l201 194h186z" />
<glyph unicode="&#x148;" d="M344 0h-172v1126h172v-217q107 103 235.5 172.5t256.5 69.5q260 0 260 -350v-801h-172v801q0 178 -88 178q-229 0 -492 -268v-711zM713 1239h-135l-320 299h186l201 -195l201 195h186z" />
<glyph unicode="&#x14e;" horiz-adv-x="1546" d="M778 1608q96 0 183.5 -23.5t173.5 -82.5t148.5 -149t101.5 -234.5t40 -327.5q0 -157 -25.5 -284.5t-72 -215.5t-107 -152t-135.5 -100.5t-151.5 -53t-161.5 -16.5q-67 0 -131 11t-129.5 38.5t-122 69.5t-107 107t-85.5 147.5t-55.5 196t-20.5 247.5t20.5 247t56 196.5 t85.5 149t107 108t123.5 70.5t131 39.5t133.5 11.5zM778 1454q-67 0 -131.5 -20t-128 -69.5t-111 -123t-77 -189.5t-29.5 -261q0 -147 29.5 -264.5t76.5 -191t110 -122.5t126 -68.5t129 -19.5q71 0 135.5 19.5t127 67.5t108 121.5t73.5 189.5t29 263q0 121 -19 222.5 t-53.5 173t-78.5 125.5t-97.5 85.5t-107.5 46.5t-111 15zM451 1985h124q6 -69 65 -122t140 -53q72 0 128.5 53.5t64.5 121.5h123q-16 -124 -104 -215t-212 -91q-130 0 -221.5 91t-107.5 215z" />
<glyph unicode="&#x14f;" horiz-adv-x="1200" d="M111 563q0 125 27.5 226t73.5 167.5t109.5 111t133 64t145.5 19.5q96 0 181 -32.5t155.5 -100t112 -184.5t41.5 -271q0 -126 -27.5 -227.5t-74 -167.5t-110 -110.5t-132.5 -63.5t-146 -19t-145.5 18t-132.5 61.5t-110 109.5t-73.5 168t-27.5 231zM918 563 q0 114 -27.5 202.5t-73.5 140.5t-101 78t-116 26t-115.5 -24.5t-101 -75t-73.5 -140t-27 -207.5q0 -117 27 -206t73.5 -140.5t101 -76.5t115.5 -25t116 24.5t101 75t73.5 140t27.5 208.5zM276 1536h125q6 -68 65 -121t140 -53q72 0 128.5 53t64.5 121h123 q-16 -124 -104 -214.5t-212 -90.5q-130 0 -222 90.5t-108 214.5z" />
<glyph unicode="&#x152;" horiz-adv-x="1959" d="M1880 0h-895q-139 -31 -213 -31q-67 0 -131 11t-129.5 38.5t-122 69.5t-107 107t-85.5 147.5t-55.5 196t-20.5 247.5t20.5 247t56 196.5t85.5 149t107 108t123.5 70.5t131 39.5t133.5 11.5q115 0 207 -31h651q59 0 113 2.5t78 4.5l24 3v-164h-686v-528h584v-156h-584 v-583h500q59 0 113 2.5t78 5.5l24 2v-166zM985 178v1221q-93 55 -207 55q-67 0 -131.5 -20t-128 -69.5t-111 -123t-77 -189.5t-29.5 -261q0 -147 29.5 -264.5t76.5 -191t110 -122.5t126 -68.5t129 -19.5q116 0 213 53z" />
<glyph unicode="&#x153;" horiz-adv-x="1988" d="M111 563q0 125 27.5 226t73.5 167.5t109.5 111t133 64t145.5 19.5q127 0 236.5 -58.5t173.5 -177.5q64 109 165 172.5t226 63.5q86 0 157 -24t117 -61t81 -87t53 -97t29 -97.5t14 -80.5t3 -53v-80h-768q-8 -203 77 -325.5t245 -122.5h30.5t36.5 3.5t46.5 10t50 21t58 35 t60.5 54t66 75.5l105 -101q-33 -41 -67.5 -75t-62 -58.5t-61 -43.5t-54.5 -30.5t-53 -19.5t-45.5 -11.5t-43 -5.5t-35 -2h-31.5q-138 0 -240.5 59.5t-164.5 164.5q-64 -114 -171 -169t-233 -55q-77 0 -145.5 18t-132.5 61.5t-110 109.5t-73.5 168t-27.5 231zM918 551v24 q-1 111 -29 197t-74 136.5t-100.5 76t-114.5 25.5q-61 0 -115.5 -24.5t-101 -75t-73.5 -140t-27 -207.5q0 -117 27 -206t73.5 -140.5t101 -76.5t115.5 -25q60 0 113.5 23.5t99 71.5t74 132.5t31.5 196.5v12zM1401 1004q-108 0 -181.5 -77t-109.5 -204h571q-8 49 -25 93.5 t-48.5 89t-85 71.5t-121.5 27z" />
<glyph unicode="&#x154;" horiz-adv-x="1337" d="M352 0h-180v1577h180v-64q147 92 346 95q193 0 309 -120.5t128 -330.5q-1 -93 -21.5 -170t-54 -129t-80.5 -90.5t-96 -60t-105 -33.5q60 -48 132.5 -144.5t130.5 -188t134 -189t142 -148.5v-4h-219q-48 38 -107 115.5t-113.5 159.5t-112.5 163t-122.5 142t-124.5 79h-166 v-659zM655 813q43 1 82 9.5t80.5 32.5t71 61t49 99t20.5 142q0 131 -77.5 210t-210.5 79q-171 0 -318 -100v-533h303zM881 1980h213l-340 -299h-142z" />
<glyph unicode="&#x155;" horiz-adv-x="892" d="M172 1126h172v-153q104 178 285 178q49 0 95.5 -11.5t77 -28.5t54 -33.5t34.5 -27.5l11 -12l-119 -114q-6 7 -16.5 17.5t-48 28t-80.5 17.5q-47 0 -92 -25.5t-82 -69.5t-65.5 -89.5t-53.5 -97.5v-705h-172v1126zM647 1548h213l-340 -299h-141z" />
<glyph unicode="&#x158;" horiz-adv-x="1337" d="M352 0h-180v1577h180v-64q147 92 346 95q193 0 309 -120.5t128 -330.5q-1 -93 -21.5 -170t-54 -129t-80.5 -90.5t-96 -60t-105 -33.5q60 -48 132.5 -144.5t130.5 -188t134 -189t142 -148.5v-4h-219q-48 38 -107 115.5t-113.5 159.5t-112.5 163t-122.5 142t-124.5 79h-166 v-659zM655 813q43 1 82 9.5t80.5 32.5t71 61t49 99t20.5 142q0 131 -77.5 210t-210.5 79q-171 0 -318 -100v-533h303zM756 1679h-135l-320 299h186l201 -194l201 194h186z" />
<glyph unicode="&#x159;" horiz-adv-x="892" d="M172 1126h172v-153q104 178 285 178q49 0 95.5 -11.5t77 -28.5t54 -33.5t34.5 -27.5l11 -12l-119 -114q-6 7 -16.5 17.5t-48 28t-80.5 17.5q-47 0 -92 -25.5t-82 -69.5t-65.5 -89.5t-53.5 -97.5v-705h-172v1126zM557 1239h-135l-320 299h187l200 -195l201 195h187z" />
<glyph unicode="&#x15a;" horiz-adv-x="1265" d="M111 279l127 112q80 -130 181.5 -192.5t242.5 -65.5q140 0 233.5 76t93.5 217q0 40 -11 74.5t-26.5 60t-45.5 49t-55.5 38t-69 32t-72.5 26.5t-80 25q-61 19 -102 33t-94 37t-87.5 45.5t-71.5 55.5t-57.5 71t-34 88.5t-12.5 109.5q2 107 36.5 189t84 127.5t114.5 74 t117 37.5t103 9q147 0 251.5 -48.5t188.5 -148.5l-123 -104q-66 69 -138 103t-179 34q-32 0 -63.5 -5.5t-71 -23t-69 -46t-51 -80t-24.5 -118.5q-2 -45 16.5 -83t46 -63.5t76 -49.5t89.5 -38.5t104 -33.5q60 -19 103 -34t97.5 -39t92.5 -49t77 -61.5t63 -77.5t39 -96.5 t15 -119.5q0 -111 -41.5 -200t-113 -144t-161.5 -84t-192 -29q-187 6 -317.5 80t-228.5 230zM793 1976h213l-340 -299h-142z" />
<glyph unicode="&#x15b;" horiz-adv-x="1028" d="M319 829q0 -28 14.5 -51.5t32 -38t55.5 -31t60 -23.5t72 -23q43 -13 61.5 -19t58 -20t59 -23.5t52 -27.5t49 -34.5t38 -41.5t32 -51.5t18 -61t7.5 -74.5q0 -82 -34 -147.5t-91 -105t-126.5 -60.5t-146.5 -21q-131 0 -251 59.5t-189 170.5l119 96q45 -83 135 -131.5 t191 -50.5q92 0 157.5 49.5t65.5 140.5q0 34 -16 62.5t-37.5 46.5t-60.5 36.5t-66 28t-74 23.5q-45 13 -74.5 23t-70.5 26.5t-67.5 32.5t-56 41t-46 52.5t-28 65.5t-11.5 82q0 78 27.5 138.5t67 94t91 55t93 28t79.5 6.5q108 0 200.5 -35t153.5 -96l-110 -107 q-40 43 -105 69t-139 26q-21 0 -43 -4t-49 -15.5t-47.5 -30.5t-35 -52.5t-14.5 -76.5zM643 1548h213l-340 -299h-141z" />
<glyph unicode="&#x15c;" horiz-adv-x="1265" d="M111 279l127 112q80 -130 181.5 -192.5t242.5 -65.5q140 0 233.5 76t93.5 217q0 40 -11 74.5t-26.5 60t-45.5 49t-55.5 38t-69 32t-72.5 26.5t-80 25q-61 19 -102 33t-94 37t-87.5 45.5t-71.5 55.5t-57.5 71t-34 88.5t-12.5 109.5q2 107 36.5 189t84 127.5t114.5 74 t117 37.5t103 9q147 0 251.5 -48.5t188.5 -148.5l-123 -104q-66 69 -138 103t-179 34q-32 0 -63.5 -5.5t-71 -23t-69 -46t-51 -80t-24.5 -118.5q-2 -45 16.5 -83t46 -63.5t76 -49.5t89.5 -38.5t104 -33.5q60 -19 103 -34t97.5 -39t92.5 -49t77 -61.5t63 -77.5t39 -96.5 t15 -119.5q0 -111 -41.5 -200t-113 -144t-161.5 -84t-192 -29q-187 6 -317.5 80t-228.5 230zM565 1978h135l320 -299h-186l-201 195l-201 -195h-186z" />
<glyph unicode="&#x15d;" horiz-adv-x="1028" d="M319 829q0 -28 14.5 -51.5t32 -38t55.5 -31t60 -23.5t72 -23q43 -13 61.5 -19t58 -20t59 -23.5t52 -27.5t49 -34.5t38 -41.5t32 -51.5t18 -61t7.5 -74.5q0 -82 -34 -147.5t-91 -105t-126.5 -60.5t-146.5 -21q-131 0 -251 59.5t-189 170.5l119 96q45 -83 135 -131.5 t191 -50.5q92 0 157.5 49.5t65.5 140.5q0 34 -16 62.5t-37.5 46.5t-60.5 36.5t-66 28t-74 23.5q-45 13 -74.5 23t-70.5 26.5t-67.5 32.5t-56 41t-46 52.5t-28 65.5t-11.5 82q0 78 27.5 138.5t67 94t91 55t93 28t79.5 6.5q108 0 200.5 -35t153.5 -96l-110 -107 q-40 43 -105 69t-139 26q-21 0 -43 -4t-49 -15.5t-47.5 -30.5t-35 -52.5t-14.5 -76.5zM446 1548h136l319 -299h-186l-201 195l-201 -195h-186z" />
<glyph unicode="&#x160;" horiz-adv-x="1265" d="M111 279l127 112q80 -130 181.5 -192.5t242.5 -65.5q140 0 233.5 76t93.5 217q0 40 -11 74.5t-26.5 60t-45.5 49t-55.5 38t-69 32t-72.5 26.5t-80 25q-61 19 -102 33t-94 37t-87.5 45.5t-71.5 55.5t-57.5 71t-34 88.5t-12.5 109.5q2 107 36.5 189t84 127.5t114.5 74 t117 37.5t103 9q147 0 251.5 -48.5t188.5 -148.5l-123 -104q-66 69 -138 103t-179 34q-32 0 -63.5 -5.5t-71 -23t-69 -46t-51 -80t-24.5 -118.5q-2 -45 16.5 -83t46 -63.5t76 -49.5t89.5 -38.5t104 -33.5q60 -19 103 -34t97.5 -39t92.5 -49t77 -61.5t63 -77.5t39 -96.5 t15 -119.5q0 -111 -41.5 -200t-113 -144t-161.5 -84t-192 -29q-187 6 -317.5 80t-228.5 230zM700 1679h-135l-319 299h186l201 -194l201 194h186z" />
<glyph unicode="&#x161;" horiz-adv-x="1028" d="M319 829q0 -28 14.5 -51.5t32 -38t55.5 -31t60 -23.5t72 -23q43 -13 61.5 -19t58 -20t59 -23.5t52 -27.5t49 -34.5t38 -41.5t32 -51.5t18 -61t7.5 -74.5q0 -82 -34 -147.5t-91 -105t-126.5 -60.5t-146.5 -21q-131 0 -251 59.5t-189 170.5l119 96q45 -83 135 -131.5 t191 -50.5q92 0 157.5 49.5t65.5 140.5q0 34 -16 62.5t-37.5 46.5t-60.5 36.5t-66 28t-74 23.5q-45 13 -74.5 23t-70.5 26.5t-67.5 32.5t-56 41t-46 52.5t-28 65.5t-11.5 82q0 78 27.5 138.5t67 94t91 55t93 28t79.5 6.5q108 0 200.5 -35t153.5 -96l-110 -107 q-40 43 -105 69t-139 26q-21 0 -43 -4t-49 -15.5t-47.5 -30.5t-35 -52.5t-14.5 -76.5zM582 1239h-136l-319 299h186l201 -195l201 195h186z" />
<glyph unicode="&#x164;" horiz-adv-x="1138" d="M14 1421v156h1110v-156h-469v-1421h-180v1421h-461zM637 1679h-135l-320 299h187l200 -194l201 194h186z" />
<glyph unicode="&#x168;" horiz-adv-x="1398" d="M1227 489q0 -95 -21 -173.5t-54 -130.5t-79.5 -91.5t-93 -61.5t-100.5 -35.5t-95 -17.5t-84 -4t-84.5 4t-95.5 18t-100.5 36t-93 62t-79.5 92t-54 130t-21 172v1088h180v-1083q0 -90 25.5 -158.5t62.5 -106t87.5 -60.5t90.5 -29.5t82 -6.5q40 0 80.5 7.5t90 30.5t87 60.5 t63 104t26.5 153.5v1088h180v-1088zM1067 1872l51 -103q-3 -4 -9.5 -11t-28 -24.5t-45 -31.5t-61.5 -26.5t-77 -14.5q-63 -4 -209 49q-130 49 -182 47q-52 -3 -95.5 -22.5t-60.5 -37.5l-18 -18l-51 103q3 4 9.5 11t28 24.5t45 31.5t61.5 26.5t77 14.5q63 4 209 -49 q130 -49 182 -47q53 3 96.5 22.5t60.5 37.5z" />
<glyph unicode="&#x169;" d="M401 141q229 0 492 273v712h172v-1126h-172v199q-103 -98 -233 -161t-259 -63q-260 0 -260 351v800h172v-800q0 -185 88 -185zM985 1470l51 -102q-3 -4 -9.5 -11t-28 -24.5t-45 -31.5t-61.5 -26.5t-77 -14.5q-63 -4 -209 49q-130 49 -182 47q-52 -3 -95.5 -22.5 t-60.5 -37.5l-18 -18l-51 102q3 4 9.5 11t28 25t45 32t61.5 26.5t77 14.5q63 4 209 -49q130 -49 182 -47q33 2 63.5 10.5t49.5 19.5t33.5 21.5t20.5 17.5z" />
<glyph unicode="&#x16c;" horiz-adv-x="1398" d="M1227 489q0 -95 -21 -173.5t-54 -130.5t-79.5 -91.5t-93 -61.5t-100.5 -35.5t-95 -17.5t-84 -4t-84.5 4t-95.5 18t-100.5 36t-93 62t-79.5 92t-54 130t-21 172v1088h180v-1083q0 -90 25.5 -158.5t62.5 -106t87.5 -60.5t90.5 -29.5t82 -6.5q40 0 80.5 7.5t90 30.5t87 60.5 t63 104t26.5 153.5v1088h180v-1088zM383 1985h125q6 -69 65 -122t140 -53q72 0 128 53.5t64 121.5h123q-16 -124 -103.5 -215t-211.5 -91q-130 0 -222 91t-108 215z" />
<glyph unicode="&#x16d;" d="M401 141q229 0 492 273v712h172v-1126h-172v199q-103 -98 -233 -161t-259 -63q-260 0 -260 351v800h172v-800q0 -185 88 -185zM295 1536h125q6 -68 65 -121t140 -53q72 0 128 53t64 121h123q-16 -124 -103.5 -214.5t-211.5 -90.5q-130 0 -222 90.5t-108 214.5z" />
<glyph unicode="&#x16e;" horiz-adv-x="1398" d="M1227 489q0 -95 -21 -173.5t-54 -130.5t-79.5 -91.5t-93 -61.5t-100.5 -35.5t-95 -17.5t-84 -4t-84.5 4t-95.5 18t-100.5 36t-93 62t-79.5 92t-54 130t-21 172v1088h180v-1083q0 -90 25.5 -158.5t62.5 -106t87.5 -60.5t90.5 -29.5t82 -6.5q40 0 80.5 7.5t90 30.5t87 60.5 t63 104t26.5 153.5v1088h180v-1088zM506 1876q0 -82 57 -139.5t139 -57.5q78 0 133.5 57.5t55.5 139.5q0 78 -55.5 133t-133.5 55q-82 0 -139 -55t-57 -133q0 78 57 133t139 55q78 0 133.5 -55t55.5 -133q0 -82 -55.5 -139.5t-133.5 -57.5q-82 0 -139 57.5t-57 139.5 q0 78 57 133t139 55q78 0 133.5 -55t55.5 -133q0 -82 -55.5 -139.5t-133.5 -57.5q-82 0 -139 57.5t-57 139.5zM604 1876q0 -40 29 -69t69 -29q36 0 64.5 29.5t28.5 68.5q0 35 -29 63.5t-64 28.5q-39 0 -68.5 -28t-29.5 -64z" />
<glyph unicode="&#x16f;" d="M401 141q229 0 492 273v712h172v-1126h-172v199q-103 -98 -233 -161t-259 -63q-260 0 -260 351v800h172v-800q0 -185 88 -185zM426 1419q0 -82 57.5 -139t139.5 -57q78 0 133 57t55 139q0 78 -55 133.5t-133 55.5q-82 0 -139.5 -55.5t-57.5 -133.5q0 78 57.5 133.5 t139.5 55.5q78 0 133 -55.5t55 -133.5q0 -82 -55 -139t-133 -57q-82 0 -139.5 57t-57.5 139q0 78 57.5 133.5t139.5 55.5q78 0 133 -55.5t55 -133.5q0 -82 -55 -139t-133 -57q-82 0 -139.5 57t-57.5 139zM524 1419q0 -40 29.5 -69t69.5 -29q36 0 64 29.5t28 68.5 q0 35 -28.5 63.5t-63.5 28.5q-39 0 -69 -28t-30 -64z" />
<glyph unicode="&#x172;" horiz-adv-x="1398" d="M1227 489q0 -95 -21 -173.5t-54 -130.5t-79.5 -91.5t-93 -61.5t-100.5 -35.5t-95 -17.5t-84 -4t-84.5 4t-95.5 18t-100.5 36t-93 62t-79.5 92t-54 130t-21 172v1088h180v-1083q0 -90 25.5 -158.5t62.5 -106t87.5 -60.5t90.5 -29.5t82 -6.5q40 0 80.5 7.5t90 30.5t87 60.5 t63 104t26.5 153.5v1088h180v-1088zM602 -141q0 35 17 73t41 67.5t48 54t41 37.5l17 13l65 -41q-5 -3 -13 -9.5t-28.5 -26.5t-36.5 -42t-29 -55.5t-13 -66.5q0 -34 27 -53t59 -19q67 0 112 55l82 -73q-82 -92 -194 -92q-73 0 -134 47t-61 131z" />
<glyph unicode="&#x173;" d="M401 141q229 0 492 273v712h172v-1126h-172v199q-103 -98 -233 -161t-259 -63q-260 0 -260 351v800h172v-800q0 -185 88 -185zM786 -141q0 35 17 73t41 67.5t48 54t41 37.5l17 13l66 -41q-5 -3 -13 -9.5t-29 -26.5t-37 -42t-29 -55.5t-13 -66.5q0 -34 27 -53t59 -19 q68 0 113 55l82 -73q-82 -92 -195 -92q-73 0 -134 47t-61 131z" />
<glyph unicode="&#x174;" horiz-adv-x="1998" d="M647 0h-149l-447 1577h185l331 -1249l4 -25l4 25l328 1249h191l327 -1253l4 -25l5 25l331 1253h187l-447 -1577h-149l-348 1217l-7 36l-6 -36zM932 1972h135l319 -299h-186l-201 195l-200 -195h-187z" />
<glyph unicode="&#x175;" horiz-adv-x="1591" d="M539 0h-162l-326 1126h187l223 -839l6 -43l6 43l240 839h147l240 -839l8 -43l6 43q217 818 258 839h168q-24 -24 -113 -305.5t-166 -550.5l-77 -270h-146l-252 868zM727 1548h135l320 -299h-187l-200 195l-201 -195h-186z" />
<glyph unicode="&#x176;" horiz-adv-x="1259" d="M1038 1577h203l-520 -821v-756h-178v756l-525 821h211l404 -633zM563 1980h135l320 -299h-187l-200 195l-201 -195h-186z" />
<glyph unicode="&#x177;" horiz-adv-x="1050" d="M33 1126h182l305 -790q306 751 352 790h195q-32 -31 -67.5 -99t-140 -314t-327.5 -793q-25 -63 -40.5 -98.5t-42 -88t-57.5 -94t-68 -77.5q-121 -116 -291 -125l-43 149q85 5 131.5 27t85.5 61q39 38 73.5 97.5t90.5 193.5l55 137zM457 1548h135l319 -299h-186l-201 195 l-200 -195h-187z" />
<glyph unicode="&#x178;" horiz-adv-x="1259" d="M1038 1577h203l-520 -821v-756h-178v756l-525 821h211l404 -633zM317 1796q0 44 30.5 74.5t76.5 30.5q44 0 74 -30.5t30 -74.5q0 -46 -30 -76t-74 -30q-46 0 -76.5 30t-30.5 76zM729 1796q0 44 31.5 74.5t75.5 30.5q45 0 74.5 -30t29.5 -75q0 -46 -29 -76t-75 -30 q-45 0 -76 30.5t-31 75.5z" />
<glyph unicode="&#x179;" horiz-adv-x="1251" d="M1151 201v-170q-25 -14 -85.5 -21.5t-108.5 -8.5l-48 -1h-809v168l789 1241h-768v168h987v-164l-789 -1245h594q148 0 238 33zM827 1974h213l-340 -299h-141z" />
<glyph unicode="&#x17a;" horiz-adv-x="1056" d="M977 180v-145q-12 -14 -49 -22.5t-68 -10.5l-31 -2h-729v145l635 838h-635v143h842v-143l-635 -838h524q13 0 32.5 1t59 9.5t54.5 24.5zM711 1548h213l-340 -299h-142z" />
<glyph unicode="&#x17d;" horiz-adv-x="1251" d="M1151 201v-170q-25 -14 -85.5 -21.5t-108.5 -8.5l-48 -1h-809v168l789 1241h-768v168h987v-164l-789 -1245h594q148 0 238 33zM739 1681h-135l-319 299h186l201 -194l200 194h187z" />
<glyph unicode="&#x17e;" horiz-adv-x="1056" d="M977 180v-145q-12 -14 -49 -22.5t-68 -10.5l-31 -2h-729v145l635 838h-635v143h842v-143l-635 -838h524q13 0 32.5 1t59 9.5t54.5 24.5zM596 1239h-135l-320 299h187l200 -195l201 195h186z" />
<glyph unicode="&#x1fc;" horiz-adv-x="2002" d="M1292 1978h213l-340 -299h-141zM1923 0h-895v537h-481l-299 -537h-199l871 1577h759q59 0 113 2.5t78 4.5l24 3v-164h-686v-528h584v-156h-584v-583h500q59 0 113 2.5t78 5.5l24 2v-166zM1028 1399l-395 -707h395v707z" />
<glyph unicode="&#x1fd;" horiz-adv-x="1835" d="M672 1151q174 0 241 -156q133 156 334 156q86 0 157 -24t117 -61t81 -87t53.5 -97t29.5 -97t14 -80.5t3 -53.5v-80h-768q-8 -204 76.5 -326t244.5 -122q30 0 45 0.5t57 10.5t75 29t80.5 60t91.5 99l104 -101q-33 -41 -67.5 -75t-62 -58.5t-61 -43.5t-54.5 -30.5 t-53 -19.5t-45.5 -11.5t-43 -5.5t-35 -2h-31.5q-264 0 -401 215q-191 -215 -426 -215q-13 0 -32 2t-50.5 9.5t-61.5 20t-62 36t-56 54.5t-39.5 79.5t-15.5 106.5q0 48 8.5 89.5t35 87.5t69.5 81.5t117.5 65t174.5 44.5q181 24 258 43v133q0 17 -2 34t-9.5 42t-20 43 t-37.5 31.5t-58 13.5q-49 0 -113 -16.5t-120.5 -39.5t-106 -46.5t-79.5 -38.5l-29 -16l-35 68q-34 69 -33 71q321 178 541 178zM422 119q101 -7 206.5 50t172.5 140q-27 80 -27 236q-103 -18 -239 -37q-80 -13 -133.5 -36t-79 -55t-34.5 -63t-9 -71q0 -49 17 -84t43.5 -50.5 t46 -22t36.5 -7.5zM1247 1004q-108 0 -181.5 -77t-109.5 -204h572q-8 48 -25.5 93t-48.5 89.5t-84.5 71.5t-122.5 27zM1100 1548h213l-340 -299h-142z" />
<glyph unicode="&#x237;" horiz-adv-x="450" d="M88 1126h170v-1214q0 -179 -87.5 -308.5t-193.5 -166.5l-51 162q62 8 112 101t50 212v1214z" />
<glyph unicode="&#x2c6;" horiz-adv-x="1015" d="M440 1548h135l320 -299h-186l-201 195l-201 -195h-186z" />
<glyph unicode="&#x2c7;" horiz-adv-x="1015" d="M575 1239h-135l-319 299h186l201 -195l201 195h186z" />
<glyph unicode="&#x2d8;" horiz-adv-x="886" d="M121 1536h125q6 -68 65 -121t140 -53q72 0 128 53t64 121h123q-16 -124 -103.5 -214.5t-211.5 -90.5q-130 0 -222 90.5t-108 214.5z" />
<glyph unicode="&#x2d9;" horiz-adv-x="391" d="M90 1473q0 44 30.5 74t76.5 30q44 0 74 -30t30 -74q0 -46 -30 -76.5t-74 -30.5q-46 0 -76.5 30.5t-30.5 76.5z" />
<glyph unicode="&#x2da;" horiz-adv-x="647" d="M131 1419q0 -82 57.5 -139t139.5 -57q78 0 133 57t55 139q0 78 -55 133.5t-133 55.5q-82 0 -139.5 -55.5t-57.5 -133.5q0 78 57.5 133.5t139.5 55.5q78 0 133 -55.5t55 -133.5q0 -82 -55 -139t-133 -57q-82 0 -139.5 57t-57.5 139q0 78 57.5 133.5t139.5 55.5 q78 0 133 -55.5t55 -133.5q0 -82 -55 -139t-133 -57q-82 0 -139.5 57t-57.5 139zM229 1419q0 -40 29.5 -69t69.5 -29q36 0 64 29.5t28 68.5q0 35 -28.5 63.5t-63.5 28.5q-39 0 -69 -28t-30 -64z" />
<glyph unicode="&#x2db;" horiz-adv-x="651" d="M131 -141q0 35 17 73t41 67.5t48 54t41 37.5l17 13l65 -41q-5 -3 -13 -9.5t-28.5 -26.5t-36.5 -42t-29 -55.5t-13 -66.5q0 -34 27 -53t59 -19q67 0 112 55l82 -73q-82 -92 -194 -92q-73 0 -134 47t-61 131z" />
<glyph unicode="&#x2dc;" horiz-adv-x="1099" d="M918 1470l51 -102q-3 -4 -9.5 -11t-28 -24.5t-45 -31.5t-61.5 -26.5t-77 -14.5q-63 -4 -209 49q-130 49 -183 47q-52 -3 -95.5 -22.5t-60.5 -37.5l-18 -18l-51 102q3 4 9.5 11t28 25t45 32t61.5 26.5t77 14.5q63 4 209 -49q130 -49 182 -47q53 3 96.5 22t60.5 37z" />
<glyph unicode="&#x2dd;" horiz-adv-x="1005" d="M389 1548h213l-340 -299h-141zM672 1548h213l-340 -299h-142z" />
<glyph unicode="&#x1e80;" horiz-adv-x="1998" d="M647 0h-149l-447 1577h185l331 -1249l4 -25l4 25l328 1249h191l327 -1253l4 -25l5 25l331 1253h187l-447 -1577h-149l-348 1217l-7 36l-6 -36zM608 1976h213l269 -299h-142z" />
<glyph unicode="&#x1e81;" horiz-adv-x="1591" d="M539 0h-162l-326 1126h187l223 -839l6 -43l6 43l240 839h147l240 -839l8 -43l6 43q217 818 258 839h168q-24 -24 -113 -305.5t-166 -550.5l-77 -270h-146l-252 868zM385 1548h213l268 -299h-141z" />
<glyph unicode="&#x1e82;" horiz-adv-x="1998" d="M647 0h-149l-447 1577h185l331 -1249l4 -25l4 25l328 1249h191l327 -1253l4 -25l5 25l331 1253h187l-447 -1577h-149l-348 1217l-7 36l-6 -36zM1180 1978h213l-340 -299h-142z" />
<glyph unicode="&#x1e83;" horiz-adv-x="1591" d="M539 0h-162l-326 1126h187l223 -839l6 -43l6 43l240 839h147l240 -839l8 -43l6 43q217 818 258 839h168q-24 -24 -113 -305.5t-166 -550.5l-77 -270h-146l-252 868zM971 1548h213l-340 -299h-142z" />
<glyph unicode="&#x1e84;" horiz-adv-x="1998" d="M647 0h-149l-447 1577h185l331 -1249l4 -25l4 25l328 1249h191l327 -1253l4 -25l5 25l331 1253h187l-447 -1577h-149l-348 1217l-7 36l-6 -36zM688 1786q0 44 30.5 74t76.5 30q44 0 74 -30t30 -74q0 -46 -30 -76.5t-74 -30.5q-46 0 -76.5 30.5t-30.5 76.5zM1100 1786 q0 44 31 74t75 30q46 0 75.5 -30t29.5 -74q0 -46 -29.5 -76.5t-75.5 -30.5q-44 0 -75 30.5t-31 76.5z" />
<glyph unicode="&#x1e85;" horiz-adv-x="1591" d="M539 0h-162l-326 1126h187l223 -839l6 -43l6 43l240 839h147l240 -839l8 -43l6 43q217 818 258 839h168q-24 -24 -113 -305.5t-166 -550.5l-77 -270h-146l-252 868zM483 1356q0 44 30.5 74t76.5 30q44 0 74 -30t30 -74q0 -46 -30 -76.5t-74 -30.5q-46 0 -76.5 30.5 t-30.5 76.5zM895 1356q0 44 31 74t75 30q45 0 75 -30t30 -74q0 -46 -29.5 -76.5t-75.5 -30.5q-45 0 -75.5 30.5t-30.5 76.5z" />
<glyph unicode="&#x1ef2;" horiz-adv-x="1259" d="M1038 1577h203l-520 -821v-756h-178v756l-525 821h211l404 -633zM258 1976h213l268 -299h-141z" />
<glyph unicode="&#x1ef3;" horiz-adv-x="1050" d="M33 1126h182l305 -790q306 751 352 790h195q-32 -31 -67.5 -99t-140 -314t-327.5 -793q-25 -63 -40.5 -98.5t-42 -88t-57.5 -94t-68 -77.5q-121 -116 -291 -125l-43 149q85 5 131.5 27t85.5 61q39 38 73.5 97.5t90.5 193.5l55 137zM162 1548h213l268 -299h-141z" />
<glyph unicode="&#x2000;" horiz-adv-x="1032" />
<glyph unicode="&#x2001;" horiz-adv-x="2064" />
<glyph unicode="&#x2002;" horiz-adv-x="1032" />
<glyph unicode="&#x2003;" horiz-adv-x="2064" />
<glyph unicode="&#x2004;" horiz-adv-x="688" />
<glyph unicode="&#x2005;" horiz-adv-x="516" />
<glyph unicode="&#x2006;" horiz-adv-x="344" />
<glyph unicode="&#x2007;" horiz-adv-x="344" />
<glyph unicode="&#x2008;" horiz-adv-x="258" />
<glyph unicode="&#x2009;" horiz-adv-x="412" />
<glyph unicode="&#x200a;" horiz-adv-x="114" />
<glyph unicode="&#x2010;" horiz-adv-x="704" d="M594 635v-143h-483v143h483z" />
<glyph unicode="&#x2011;" horiz-adv-x="704" d="M594 635v-143h-483v143h483z" />
<glyph unicode="&#x2012;" horiz-adv-x="704" d="M594 635v-143h-483v143h483z" />
<glyph unicode="&#x2013;" horiz-adv-x="1349" d="M1239 631v-133h-1128v133h1128z" />
<glyph unicode="&#x2014;" horiz-adv-x="1615" d="M1505 631v-133h-1394v133h1394z" />
<glyph unicode="&#x2018;" horiz-adv-x="419" d="M330 1212q0 -49 -32.5 -80.5t-82.5 -31.5q-63 0 -94 46.5t-31 121.5q1 84 38.5 176t102.5 172l95 -51q-102 -128 -119 -238q55 0 89 -32.5t34 -82.5z" />
<glyph unicode="&#x2019;" horiz-adv-x="419" d="M90 1462q0 49 32.5 81t82.5 32q63 0 94 -46.5t31 -121.5q-1 -84 -39 -176t-103 -172l-94 51q102 128 119 238q-55 0 -89 32t-34 82z" />
<glyph unicode="&#x201c;" horiz-adv-x="770" d="M330 1212q0 -49 -32.5 -80.5t-82.5 -31.5q-63 0 -94 46.5t-31 121.5q1 84 38.5 176t102.5 172l95 -51q-102 -128 -119 -238q55 0 89 -32.5t34 -82.5zM680 1212q0 -49 -32.5 -80.5t-82.5 -31.5q-63 0 -94 46.5t-31 121.5q1 84 39 176t103 172l94 -51q-102 -128 -119 -238 q55 0 89 -32.5t34 -82.5z" />
<glyph unicode="&#x201d;" horiz-adv-x="770" d="M440 1462q0 49 32.5 81t82.5 32q63 0 94 -46.5t31 -121.5q-1 -84 -38.5 -176t-102.5 -172l-95 51q102 128 119 238q-55 0 -89 32t-34 82zM90 1462q0 49 32.5 81t82.5 32q63 0 94 -46.5t31 -121.5q-1 -84 -39 -176t-103 -172l-94 51q102 128 119 238q-55 0 -89 32t-34 82z " />
<glyph unicode="&#x2022;" horiz-adv-x="692" d="M111 487q0 100 68 166t171 66q100 0 166 -66t66 -166q0 -103 -66 -171t-166 -68q-103 0 -171 68t-68 171z" />
<glyph unicode="&#x2026;" horiz-adv-x="1257" d="M90 115q0 54 36.5 89.5t92.5 35.5q54 0 89.5 -35.5t35.5 -89.5q0 -56 -35.5 -92.5t-89.5 -36.5q-55 0 -92 37t-37 92zM502 115q0 54 36.5 89.5t92.5 35.5q54 0 89.5 -35.5t35.5 -89.5q0 -56 -35.5 -92.5t-89.5 -36.5q-55 0 -92 37t-37 92zM913 115q0 54 36.5 89.5 t92.5 35.5q54 0 89.5 -35.5t35.5 -89.5q0 -56 -35.5 -92.5t-89.5 -36.5q-56 0 -92.5 37t-36.5 92z" />
<glyph unicode="&#x202f;" horiz-adv-x="412" />
<glyph unicode="&#x205f;" horiz-adv-x="516" />
<glyph unicode="&#x2122;" horiz-adv-x="1740" d="M965 801h-144v735h140l251 -549l17 -61l16 61l246 549h139v-735h-145v499l-17 -65l-174 -434h-135l-178 434l-16 65v-499zM111 1419v117h649v-117h-252v-618h-146v618h-251z" />
<glyph unicode="&#x2212;" horiz-adv-x="1347" d="M1237 633v-137h-1126v137h1126z" />
<glyph unicode="&#x25fc;" horiz-adv-x="1126" d="M0 1126h1126v-1126h-1126v1126z" />
<glyph horiz-adv-x="1386" d="M121 768q0 177 31.5 316t85 228.5t128.5 148t156 82.5t174 24t173.5 -24t155 -82.5t127 -148t83.5 -228.5t31 -316t-31 -316t-83.5 -228.5t-127 -148t-155 -82.5t-173.5 -24t-174 24t-156 82.5t-128.5 148t-85 228.5t-31.5 316zM1085 768q0 328 -105.5 484.5 t-283.5 156.5q-85 0 -154.5 -36.5t-124.5 -111t-85.5 -200.5t-30.5 -293q0 -165 32 -290.5t88 -198.5t125 -108.5t150 -35.5t149.5 35.5t123 108.5t85.5 198t31 291z" />
<glyph horiz-adv-x="743" d="M575 0h-182v1341l-182 -153l-111 127l293 221h182v-1536z" />
<glyph horiz-adv-x="1097" d="M233 1206q-110 111 -110 113q26 43 58.5 81t82 78t119 64t149.5 25q182 0 299 -102t117 -279q0 -71 -43.5 -177t-103 -207t-152 -232.5t-158 -217t-153.5 -196.5h649v-156h-887v131l38.5 44t95 113t134.5 167t142 192t134.5 202.5t95 183t38.5 149.5q0 55 -21.5 99.5 t-57 72t-79.5 42t-90 13.5q-56 -1 -107 -22t-84 -50.5t-58 -59.5t-37 -51z" />
<glyph horiz-adv-x="1112" d="M209 1264l-96 94q4 8 13 22.5t41 50.5t70 63.5t101 50t133 22.5q141 0 242.5 -92t101.5 -230q0 -149 -180 -293q147 -19 250.5 -126.5t107.5 -258.5q0 -119 -37.5 -220t-98.5 -169t-138.5 -116.5t-156.5 -70.5t-154 -22q-55 -1 -109.5 12t-94 31.5t-71 37t-47.5 31.5 l-16 13l108 103q3 -3 9.5 -7.5t28 -16.5t46 -20.5t64 -15t82.5 -4.5q52 0 108 16t111.5 50.5t99 84t71 123t27.5 160.5q0 96 -74 172t-173 76q-64 0 -136 -13.5t-112 -25.5l-41 -12v139q78 29 137.5 60.5t112 73t80.5 94.5t28 114q0 71 -52 115.5t-122 44.5 q-53 0 -99.5 -14.5t-75 -35.5t-50 -41.5t-30.5 -35.5z" />
<glyph horiz-adv-x="1271" d="M1212 532v-155h-215v-377h-182v377h-745v96l802 1063h125v-1004h215zM334 532h481v689l-491 -666l-29 -29v-2z" />
<glyph horiz-adv-x="1220" d="M365 1382v-401q116 53 227 53q239 0 369.5 -128t130.5 -333q0 -157 -39 -275t-110 -189t-164.5 -105.5t-209.5 -34.5q-75 0 -146.5 18t-120.5 44t-87 52t-56 44l-18 18l99 121q6 -6 17 -15.5t46 -34.5t71.5 -44.5t90 -35t104.5 -15.5q76 0 139.5 26t113 78.5t77 140.5 t27.5 203q0 55 -21 109.5t-60.5 101.5t-105.5 76t-147 29q-163 0 -273 -74h-135v725h791v-154h-610z" />
<glyph horiz-adv-x="1245" d="M696 944q71 0 132.5 -15t116.5 -49t94.5 -86t62 -131t22.5 -178q0 -61 -14.5 -127t-50 -136.5t-88 -126t-136.5 -91t-188 -35.5q-248 0 -383 191.5t-135 544.5q0 230 74 427.5t208 316t298 118.5q173 0 352 -133l-109 -113q-4 3 -11.5 9t-31.5 20.5t-50 25.5t-65 20 t-77 9q-90 0 -164 -50t-120.5 -127t-79 -177t-46.5 -192.5t-16 -180.5q172 266 405 266zM647 119q67 0 121 25.5t88 65t57 89.5t32 96.5t9 89.5q0 84 -20.5 145.5t-57.5 96t-81.5 50.5t-98.5 16q-46 0 -91.5 -15.5t-96 -51.5t-101 -103.5t-94.5 -161.5q32 -165 118.5 -253.5 t215.5 -88.5z" />
<glyph horiz-adv-x="1036" d="M92 1366v170h885v-121q-72 -152 -181 -362.5t-240.5 -449t-251.5 -414t-179 -201.5l-117 108q59 36 208 272.5t297 508t255 489.5h-676z" />
<glyph horiz-adv-x="1191" d="M1022 1231q0 -60 -22 -119.5t-54.5 -105t-77 -88.5t-82 -71t-77.5 -52q78 -55 132.5 -100.5t109 -104.5t82.5 -123t28 -131q0 -76 -24 -137.5t-58.5 -99t-85.5 -64.5t-91.5 -39.5t-91.5 -19t-70.5 -7t-41.5 -0.5h-4h-23t-44.5 3t-64 8t-71 17.5t-76.5 29.5t-68.5 45.5 t-60.5 64t-39 87t-16 112.5q1 61 21 121t51.5 109t73.5 94t83 78t84 59q-274 218 -274 434q0 74 25 132.5t66 96t97 62t114.5 35t121.5 10.5t122 -10.5t115.5 -35t98 -62t67 -96.5t25.5 -132zM891 336q0 44 -25.5 91.5t-77 98.5t-103 93t-128.5 98q-63 -40 -115.5 -90.5 t-95.5 -128.5t-49 -162q0 -47 16.5 -85t38.5 -60.5t57.5 -39t60 -23.5t59.5 -11t42.5 -4h22.5h2q14 0 27 0.5t45 4.5t58 11.5t58.5 24t54.5 39t37 60t15 83.5zM588 883q37 19 75.5 47.5t83.5 72.5t74 104t29 124q0 57 -22 98.5t-60.5 63.5t-81 31.5t-92.5 9.5 q-49 0 -91.5 -9.5t-81 -31.5t-61 -63.5t-22.5 -98.5q0 -62 38 -126.5t86.5 -111.5t125.5 -110z" />
<glyph horiz-adv-x="1245" d="M549 592q-71 0 -132.5 15t-116.5 49t-94.5 86t-62 131t-22.5 178q0 61 14.5 127t50 136.5t88 126t136.5 91t188 35.5q248 0 383 -191.5t135 -544.5q0 -230 -73.5 -427t-207.5 -316t-298 -119q-174 0 -353 133l109 113q4 -3 11.5 -9t31.5 -20.5t50 -25.5t65 -20t77 -9 q90 0 164 50t120.5 127t79 177t46.5 192.5t16 180.5q-172 -266 -405 -266zM598 1417q-67 0 -121 -25.5t-88 -65t-57 -89.5t-32 -96.5t-9 -89.5q0 -84 20.5 -145.5t57.5 -96t81.5 -50.5t98.5 -16q46 0 91.5 15.5t96 51.5t101 103.5t94.5 161.5q-32 165 -118.5 253.5 t-215.5 88.5z" />
</font>
</defs>
</svg>
